Двойка / The Deuce / Сезон 1 / Серии 1-8 (8) (Дэвид Саймон) [2017, США, драма, WEB-DL 1080p] MVO (OMSKBIRD)

Ответить на тему
Статистика раздачи
Размер:  50,92 GB   |    Зарегистрирован:  10 месяцев 22 дня   |    Скачан:  0 раз

Полного источника не было: 9 месяцев 24 дня

 
     
 
 
 
Автор Сообщение

Gater ®

Пол: Не указан

Стаж: 1 год 2 месяца

Сообщений: 1378

Создавать темы 27-Авг-2017 12:52

[Цитировать]

-Двойка / The Deuce- Год выпуска • 2017
Страна • США
Жанр • Драма
Продолжительность • ~60 мин.
Перевод
• Профессиональный (многоголосый, закадровый) "OMSKBIRD records"
-Создатель • Дэвид Саймон
В ролях • Джеймс Франко, Мэгги Джилленхол, Гари Карр, Маргарита Левиева, Лоуренс Гиллиард мл., Доминик Фишбэк, Эмили Мид, Гбенга Акиннагбе и др.-Описание • Проект исследует беспорядочный мир порно-индустрии 1970-80х годов, процветавший в самом сердце Манхэттена, пока появление СПИДа, распространение наркотиков и обновление рынка недвижимости не положили конец этому безумию.-Реклама: Присутствует.-Возрастной рейтинг: 18+-
Качество: Amazon WEB-DL 1080p
Формат: MKV
Видео: MPEG-4 AVC / ~ 13.3 Mbps / 1920х1080p / 23.976 fps / 16:9 / ~ 0.270 bit/pixel / High Level 4.0
Аудио:
Русский / Dolby Digital 5.1 / 48 kHz / 384 kbps
English / Dolby Digital 5.1 / 48 kHz / 384 kbps
Субтитры: Eng / SRT-

- -

Над переводом работали

ПереводНиколай Исаков
Роли озвучивалиПавел Ярощик, Алексей Гнеушев, Максим Максимов, Алена Соколова
ЗвукорежиссерGater
ПостерКсения Просветова
Релиз подготовилGater

MediaInfo


General
Unique ID : 226807343020964313721808097216485956072 (0xAAA1815ED215ED6AB0A7D820D2E499E8)
Complete name : F:\Мои Документы\Видео\РАЗДАЧИ\Двойка\The Deuce S01 WEB-DL 1080p (OMSKBIRD)\The Deuce S01E01 WEB-DL 1080p (OMSKBIRD).mkv
Format : Matroska
Format version : Version 2
File size : 8.51 GiB
Duration : 1h 24mn
Overall bit rate mode : Variable
Overall bit rate : 14.4 Mbps
Encoded date : UTC 2017-08-27 12:11:29
Writing application : mkvmerge v4.0.0 ('The Stars were mine') сборка от Jun 6 2010 16:18:42
Writing library : libebml v1.0.0 + libmatroska v1.0.0
Video
ID : 1
Format : AVC
Format/Info : Advanced Video Codec
Format profile : High@L4.0
Format settings, CABAC : Yes
Format settings, ReFrames : 4 frames
Codec ID : V_MPEG4/ISO/AVC
Duration : 1h 24mn
Bit rate mode : Variable
Bit rate : 13.3 Mbps
Maximum bit rate : 15.0 Mbps
Width : 1 920 pixels
Height : 1 080 pixels
Display aspect ratio : 16:9
Frame rate : 23.976 fps
Color space : YUV
Chroma subsampling : 4:2:0
Bit depth : 8 bits
Scan type : Progressive
Bits/(Pixel*Frame) : 0.268
Stream size : 7.89 GiB (93%)
Default : No
Forced : No
Color primaries : BT.709-5, BT.1361, IEC 61966-2-4, SMPTE RP177
Transfer characteristics : BT.709-5, BT.1361
Matrix coefficients : BT.709-5, BT.1361, IEC 61966-2-4 709, SMPTE RP177
Audio #1
ID : 2
Format : AC-3
Format/Info : Audio Coding 3
Mode extension : CM (complete main)
Format settings, Endianness : Big
Codec ID : A_AC3
Duration : 1h 24mn
Bit rate mode : Constant
Bit rate : 384 Kbps
Channel(s) : 6 channels
Channel positions : Front: L C R, Side: L R, LFE
Sampling rate : 48.0 KHz
Bit depth : 16 bits
Compression mode : Lossy
Stream size : 233 MiB (3%)
Language : Russian
Default : Yes
Forced : No
Audio #2
ID : 3
Format : AC-3
Format/Info : Audio Coding 3
Mode extension : CM (complete main)
Format settings, Endianness : Big
Codec ID : A_AC3
Duration : 1h 24mn
Bit rate mode : Constant
Bit rate : 384 Kbps
Channel(s) : 6 channels
Channel positions : Front: L C R, Side: L R, LFE
Sampling rate : 48.0 KHz
Bit depth : 16 bits
Compression mode : Lossy
Stream size : 233 MiB (3%)
Language : English
Default : No
Forced : No
Text
ID : 4
Format : UTF-8
Codec ID : S_TEXT/UTF8
Codec ID/Info : UTF-8 Plain Text
Language : English
Default : No
Forced : No
[freetreker.nl].t101.torrent 
Торрент: Зарегистрирован [ 2017-10-31 22:07 ] · 5002EFDC44296DB255AA07B55E97B86047989FDB

Скачать .torrent

Скачать

128 KB

Статус: проверено
Скачан: 0 раз
Размер: 50,92 GB
terms.php
Похожие темы:


Последний раз редактировалось: Gater (2017-10-31 22:07), всего редактировалось 6 раз(а)
[Профиль] [ЛС]

Gater ®

Пол: Не указан

Стаж: 1 год 2 месяца

Сообщений: 1378

Создавать темы 19-Сен-2017 20:36 (спустя 23 дня)

[Цитировать]

Добавлена 2-ая серия
[Профиль] [ЛС]

Gater ®

Пол: Не указан

Стаж: 1 год 2 месяца

Сообщений: 1378

Создавать темы 27-Сен-2017 11:19 (спустя 7 дней)

[Цитировать]

+3
[Профиль] [ЛС]

Gater ®

Пол: Не указан

Стаж: 1 год 2 месяца

Сообщений: 1378

Создавать темы 04-Окт-2017 10:41 (спустя 6 дней)

[Цитировать]

+4
[Профиль] [ЛС]

Gater ®

Пол: Не указан

Стаж: 1 год 2 месяца

Сообщений: 1378

Создавать темы 11-Окт-2017 11:35 (спустя 7 дней)

[Цитировать]

+5
[Профиль] [ЛС]

Gater ®

Пол: Не указан

Стаж: 1 год 2 месяца

Сообщений: 1378

Создавать темы 18-Окт-2017 10:20 (спустя 6 дней)

[Цитировать]

Добавлена 6-ая серия.
[Профиль] [ЛС]

Gater ®

Пол: Не указан

Стаж: 1 год 2 месяца

Сообщений: 1378

Создавать темы 25-Окт-2017 11:50 (спустя 7 дней)

[Цитировать]

+7
[Профиль] [ЛС]

Gater ®

Пол: Не указан

Стаж: 1 год 2 месяца

Сообщений: 1378

Создавать темы 31-Окт-2017 22:20 (спустя 6 дней)

[Цитировать]

+8
Финал сезона.
[Профиль] [ЛС]
Показать сообщения:    
Ответить на тему

Текущее время: 23-Сен 13:49

Часовой пояс: UTC ± 0



Вы не можете начинать темы
Вы не можете отвечать на сообщения
Вы не можете редактировать свои сообщения
Вы не можете удалять свои сообщения
Вы не можете голосовать в опросах
Вы не можете прикреплять файлы к сообщениям
Вы можете скачивать файлы