Защитники / The Defenders / Сезон: 1 / Серии: 1-8 из 8 (С.Дж. Кларксон, Ута Бризвитц, Питер Хор [2017, США, Фантастика, боевик, криминал, приключения, WEB-DL 1080p] MVO (LostFilm) + Original

Ответить на тему
Статистика раздачи
Размер:  12,64 GB   |    Зарегистрирован:  10 месяцев 4 дня   |    Скачан:  0 раз

Полного источника не было: 8 месяцев 28 дней

 
     
 
 
 
Автор Сообщение

Grandfather61 ®

Пол: Мужской

Стаж: 1 год

Сообщений: 558

Создавать темы 01-Сен-2017 14:18

[Цитировать]

---Защитники | The Defenders---- Год выпуска: 2017
Страна: США
Жанр: Фантастика, боевик, криминал, приключения
Продолжительность: ~ 00:45:00--Перевод: Профессиональный (многоголосый закадровый) | LostFilm--Режиссёр: С.Дж. Кларксон, Ута Бризвитц, Питер Хор--В ролях: Финн Джонс, Майк Колтер, Чарли Кокс, Джессика Хенвик, Кристен Риттер, Сигурни Уивер, Элоди Юнг, Розарио Доусон, Бабс Олусанмокун, Элден Хенсон и др.--Описание: Сериал-кроссовер расскажет о том, как уличные герои-борцы с преступниками Сорвиголова, Джессика Джонс, Люк Кейдж и Железный кулак объединятся в команду для общей миссии.-Доп. информация:

Релиз: Grandfather61
Работа со звуком: serial_M-Ссылка на предыдущие и альтернативные раздачи-Качество: WEB-DL 1080p
Формат: MKV
Видео: 1920x1080 (16:9) | X264 | ~4 600 kbps | 23.976 fps
Аудио # 1: AC3, 48,0 КГц, 6 ch, 384 kbps - русский | Lostfilm
Аудио # 2: AC3, 48,0 КГц, 6 ch, 384 kbps - английский
Субтитры: английские
Реклама: отсутствует

MediaInfo

General
Unique ID                                : 209023974068867179991200606733049912823 (0x9D408D965989B9F9836FC9BDCFF9DDF7)
Complete name                            : G:\Films\The.Defenders.S01.WEB-DL.1080p.Rus.Eng.HDCLUB\The.Defenders.S01E01.WEB-DL.1080p.Rus.Eng.HDCLUB.mkv
Format                                   : Matroska
Format version                           : Version 4 / Version 2
File size                                : 1.98 GiB
Duration                                 : 51mn 43s
Overall bit rate mode                    : Variable
Overall bit rate                         : 5 475 Kbps
Encoded date                             : UTC 2017-09-01 13:25:52 / UTC 2017-06-26 17:46:40
Writing application                      : mkvmerge v15.0.0 ('Duel with the Devil') 64-bit
Writing library                          : libebml v1.3.5 + libmatroska v1.4.5 / Lavf58.0.0
Video
ID                                       : 1
Format                                   : AVC
Format/Info                              : Advanced Video Codec
Format profile                           : Main@L4
Format settings, CABAC                   : Yes
Format settings, ReFrames                : 3 frames
Codec ID                                 : V_MPEG4/ISO/AVC
Duration                                 : 51mn 43s
Bit rate mode                            : Variable
Bit rate                                 : 4 598 Kbps
Nominal bit rate                         : 4 870 Kbps
Maximum bit rate                         : 7 305 Kbps
Width                                    : 1 920 pixels
Height                                   : 1 080 pixels
Display aspect ratio                     : 16:9
Frame rate mode                          : Constant
Frame rate                               : 23.976 (24000/1001) fps
Color space                              : YUV
Chroma subsampling                       : 4:2:0
Bit depth                                : 8 bits
Scan type                                : Progressive
Bits/(Pixel*Frame)                       : 0.092
Stream size                              : 1.66 GiB (84%)
Title                                    : The Defenders 1x01 (2017) - Release for HDCLUB
Writing library                          : x264 core 118
Encoding settings                        : cabac=1 / ref=3 / deblock=1:0:0 / analyse=0x1:0x111 / me=umh / subme=10 / psy=1 / psy_rd=1.00:0.00 / mixed_ref=1 / me_range=24 / chroma_me=1 / trellis=2 / 8x8dct=0 / cqm=0 / deadzone=21,11 / fast_pskip=1 / chroma_qp_offset=-2 / threads=8 / sliced_threads=0 / nr=0 / decimate=1 / interlaced=0 / bluray_compat=0 / constrained_intra=0 / bframes=2 / b_pyramid=0 / b_adapt=2 / b_bias=0 / direct=3 / weightb=1 / open_gop=0 / weightp=2 / keyint=48 / keyint_min=25 / scenecut=0 / intra_refresh=0 / rc_lookahead=0 / rc=2pass / mbtree=1 / bitrate=4870 / ratetol=1.0 / qcomp=0.50 / qpmin=6 / qpmax=51 / qpstep=4 / cplxblur=20.0 / qblur=0.5 / vbv_maxrate=7305 / vbv_bufsize=9740 / nal_hrd=vbr / ip_ratio=1.40 / aq=1:1.00
Language                                 : English
Default                                  : Yes
Forced                                   : No
Statistics Tags Issue                    : mkvmerge v15.0.0 ('Duel with the Devil') 64-bit 2017-09-01 13:25:52 / mkvmerge v15.0.0 ('Duel with the Devil') 64-bit 2017-09-01 13:25:52 / UTC 2017-06-26 17:46:40
FromStats_BitRate                        : 4705200
FromStats_Duration                       : 00:51:43.476000000
FromStats_FrameCount                     : 74409
FromStats_StreamSize                     : 1825309522
Audio #1
ID                                       : 2
Format                                   : AC-3
Format/Info                              : Audio Coding 3
Mode extension                           : CM (complete main)
Format settings, Endianness              : Big
Codec ID                                 : A_AC3
Duration                                 : 51mn 43s
Bit rate mode                            : Constant
Bit rate                                 : 384 Kbps
Channel(s)                               : 6 channels
Channel positions                        : Front: L C R, Side: L R, LFE
Sampling rate                            : 48.0 KHz
Frame rate                               : 31.250 fps (1536 spf)
Compression mode                         : Lossy
Stream size                              : 142 MiB (7%)
Title                                    : LostFilm
Language                                 : Russian
Default                                  : Yes
Forced                                   : No
Statistics Tags Issue                    : mkvmerge v15.0.0 ('Duel with the Devil') 64-bit 2017-09-01 13:25:52 / mkvmerge v15.0.0 ('Duel with the Devil') 64-bit 2017-09-01 13:25:52 / UTC 2017-06-26 17:46:40
FromStats_BitRate                        : 384000
FromStats_Duration                       : 00:51:43.520000000
FromStats_FrameCount                     : 96985
FromStats_StreamSize                     : 148968960
Audio #2
ID                                       : 3
Format                                   : AC-3
Format/Info                              : Audio Coding 3
Mode extension                           : CM (complete main)
Format settings, Endianness              : Big
Codec ID                                 : A_AC3
Duration                                 : 51mn 43s
Bit rate mode                            : Constant
Bit rate                                 : 384 Kbps
Channel(s)                               : 6 channels
Channel positions                        : Front: L C R, Side: L R, LFE
Sampling rate                            : 48.0 KHz
Frame rate                               : 31.250 fps (1536 spf)
Compression mode                         : Lossy
Stream size                              : 142 MiB (7%)
Title                                    : English
Language                                 : English
Default                                  : No
Forced                                   : No
Encoded date                             : UTC 2017-06-26 17:46:40
HANDLER_NAME                             : Audio Media Handler
Statistics Tags Issue                    : mkvmerge v15.0.0 ('Duel with the Devil') 64-bit 2017-09-01 13:25:52 / mkvmerge v15.0.0 ('Duel with the Devil') 64-bit 2017-09-01 13:25:52 / UTC 2017-06-26 17:46:40
FromStats_BitRate                        : 384000
FromStats_Duration                       : 00:51:43.520000000
FromStats_FrameCount                     : 96985
FromStats_StreamSize                     : 148968960
Text
ID                                       : 4
Format                                   : UTF-8
Codec ID                                 : S_TEXT/UTF8
Codec ID/Info                            : UTF-8 Plain Text
Title                                    : English
Language                                 : English
Default                                  : No
Forced                                   : No
Statistics Tags Issue                    : mkvmerge v15.0.0 ('Duel with the Devil') 64-bit 2017-09-01 13:25:52 / mkvmerge v15.0.0 ('Duel with the Devil') 64-bit 2017-09-01 13:25:52 / UTC 2017-06-26 17:46:40
FromStats_BitRate                        : 63
FromStats_Duration                       : 00:49:07.361000000
FromStats_FrameCount                     : 670
FromStats_StreamSize                     : 23524

Скриншоты

Раздача ведется путем добавления новых серий

Когда раздача ведётся путём добавления новых серий, при каждом добавлении создётся новый торрент. Чтобы начать докачку новой серии, пользователям необходимо сделать следующее:
(1) остановить скачивание,
(2) удалить старый торрент у себя из клиента (старые серии удалять не надо),
(3) скачать новый торрент и запустить его у себя в клиенте вместо старого, при этом указать клиенту путь в старую папку, куда и должно происходить скачивание новых серий.
Ваш клиент при этом должен произвести хеширование (проверку) старой папки (если не производит сам - помогите ему сделать это), и будет докачивать только те серии, которых у вас ещё нет. Старые серии при этом не удаляются, а продолжают раздаваться!
Eсли вы уже удалили старые серии, то предотвратить повторную закачку старых серий можно, отжав галочку в соответсвующих местах при запуске нового торрента. По возможности, желательно не удалять старые серии как можно дольше, чтобы релизёр не столько продолжал раздавать старые серии, а смог сконцентрироваться на новых.
оригинальный голос железного кулака в озвучке LostFilm
[freetreker.nl].t105.torrent 
 ЗОЛОТАЯ РАЗДАЧА! СКАЧАННОЕ НЕ ЗАСЧИТЫВАЕТСЯ! 
Торрент: Зарегистрирован [ 2017-09-15 16:00 ] · 6CC60E281F87907E2FECE8A10737441D48AB6810

Скачать .torrent

Скачать

33 KB

Статус: проверено
Скачан: 0 раз
Размер: 12,64 GB
terms.php
Похожие темы:


Последний раз редактировалось: Grandfather61 (2017-09-15 16:01), всего редактировалось 5 раз(а)
[Профиль] [ЛС]

Grandfather61 ®

Пол: Мужской

Стаж: 1 год

Сообщений: 558

Создавать темы 02-Сен-2017 09:28 (спустя 19 часов)

[Цитировать]

Раздача обновлена. Добавлена 4-я серии. Приятного просмотра!
[Профиль] [ЛС]

Grandfather61 ®

Пол: Мужской

Стаж: 1 год

Сообщений: 558

Создавать темы 05-Сен-2017 05:48 (спустя 2 дня 20 часов)

[Цитировать]

Раздача обновлена. Добавлена 5-я серии. Приятного просмотра!
[Профиль] [ЛС]

Grandfather61 ®

Пол: Мужской

Стаж: 1 год

Сообщений: 558

Создавать темы 07-Сен-2017 16:12 (спустя 2 дня 10 часов)

[Цитировать]

Раздача обновлена. Добавлена 6-я серии. Приятного просмотра!
[Профиль] [ЛС]

Grandfather61 ®

Пол: Мужской

Стаж: 1 год

Сообщений: 558

Создавать темы 10-Сен-2017 15:51 (спустя 2 дня 23 часа)

[Цитировать]

Раздача обновлена. Добавлена 7-я серии. Приятного просмотра!
[Профиль] [ЛС]

Grandfather61 ®

Пол: Мужской

Стаж: 1 год

Сообщений: 558

Создавать темы 15-Сен-2017 16:01 (спустя 5 дней)

[Цитировать]

Раздача обновлена. Добавлена 8-я серия. Приятного просмотра!
[Профиль] [ЛС]
Показать сообщения:    
Ответить на тему

Текущее время: 19-Июл 19:35

Часовой пояс: UTC ± 0



Вы не можете начинать темы
Вы не можете отвечать на сообщения
Вы не можете редактировать свои сообщения
Вы не можете удалять свои сообщения
Вы не можете голосовать в опросах
Вы не можете прикреплять файлы к сообщениям
Вы можете скачивать файлы