Защитники / The Defenders / Сезон: 1 / Серии: 1-8 из 8 (С.Дж. Кларксон, Ута Бризвитц, Питер Хор [2017, США, Фантастика, боевик, криминал, приключения, WEB-DL 720p] MVO (LostFilm) + Original

Ответить на тему
Статистика раздачи
Размер:  7,11 GB   |    Зарегистрирован:  7 месяцев 5 дней   |    Скачан:  0 раз

Полного источника не было: 7 месяцев 4 дня

 
     
 
 
 
Автор Сообщение

Grandfather61 ®

Пол: Мужской

Стаж: 9 месяцев 11 дней

Сообщений: 507

Создавать темы 01-Сен-2017 14:19

[Цитировать]

---Защитники | The Defenders---- Год выпуска: 2017
Страна: США
Жанр: Фантастика, боевик, криминал, приключения
Продолжительность: ~ 00:45:00--Перевод: Профессиональный (многоголосый закадровый) | LostFilm--Режиссёр: С.Дж. Кларксон, Ута Бризвитц, Питер Хор--В ролях: Финн Джонс, Майк Колтер, Чарли Кокс, Джессика Хенвик, Кристен Риттер, Сигурни Уивер, Элоди Юнг, Розарио Доусон, Бабс Олусанмокун, Элден Хенсон и др.--Описание: Сериал-кроссовер расскажет о том, как уличные герои-борцы с преступниками Сорвиголова, Джессика Джонс, Люк Кейдж и Железный кулак объединятся в команду для общей миссии.-Доп. информация:

Релиз: Grandfather61
Работа со звуком: serial_M-Ссылка на предыдущие и альтернативные раздачи-Качество: WEB-DL 720p
Формат: MKV
Видео: 1280x720 (16:9) | X264 | ~2500 kbps | 23.976 fps
Аудио # 1: AC3, 48,0 КГц, 6 ch, 384 kbps - русский | Lostfilm
Аудио # 2: AC3, 48,0 КГц, 6 ch, 384 kbps - английский
Субтитры: английские
Реклама: отсутствует

MediaInfo

General
Unique ID                                : 182953945131854303747650904677419921419 (0x89A3A5EC53D842309234C0F8FE6D300B)
Complete name                            : G:\Films\The.Defenders.S01.WEB-DL.720p.Rus.Eng.HDCLUB\The.Defenders.S01E01.WEB-DL.720p.Rus.Eng.HDCLUB.mkv
Format                                   : Matroska
Format version                           : Version 4 / Version 2
File size                                : 1.11 GiB
Duration                                 : 51mn 43s
Overall bit rate mode                    : Variable
Overall bit rate                         : 3 062 Kbps
Encoded date                             : UTC 2017-09-01 10:01:54
Writing application                      : mkvmerge v14.0.0 ('Flow') 64bit
Writing library                          : libebml v1.3.4 + libmatroska v1.4.5
Video
ID                                       : 1
Format                                   : AVC
Format/Info                              : Advanced Video Codec
Format profile                           : Main@L3.1
Format settings, CABAC                   : Yes
Format settings, ReFrames                : 3 frames
Codec ID                                 : V_MPEG4/ISO/AVC
Duration                                 : 51mn 43s
Bit rate mode                            : Variable
Bit rate                                 : 2 233 Kbps
Nominal bit rate                         : 2 370 Kbps
Maximum bit rate                         : 3 555 Kbps
Width                                    : 1 280 pixels
Height                                   : 720 pixels
Display aspect ratio                     : 16:9
Frame rate mode                          : Constant
Frame rate                               : 23.976 (24000/1001) fps
Color space                              : YUV
Chroma subsampling                       : 4:2:0
Bit depth                                : 8 bits
Scan type                                : Progressive
Bits/(Pixel*Frame)                       : 0.101
Stream size                              : 826 MiB (73%)
Title                                    : The Defenders 1x01 (2017) - Release for HDCLUB
Writing library                          : x264 core 118
Encoding settings                        : cabac=1 / ref=3 / deblock=1:0:0 / analyse=0x1:0x111 / me=umh / subme=10 / psy=1 / psy_rd=1.00:0.00 / mixed_ref=1 / me_range=24 / chroma_me=1 / trellis=2 / 8x8dct=0 / cqm=0 / deadzone=21,11 / fast_pskip=1 / chroma_qp_offset=-2 / threads=8 / sliced_threads=0 / nr=0 / decimate=1 / interlaced=0 / bluray_compat=0 / constrained_intra=0 / bframes=2 / b_pyramid=0 / b_adapt=2 / b_bias=0 / direct=3 / weightb=1 / open_gop=0 / weightp=2 / keyint=48 / keyint_min=25 / scenecut=0 / intra_refresh=0 / rc_lookahead=0 / rc=2pass / mbtree=1 / bitrate=2370 / ratetol=1.0 / qcomp=0.50 / qpmin=6 / qpmax=51 / qpstep=4 / cplxblur=20.0 / qblur=0.5 / vbv_maxrate=3555 / vbv_bufsize=4740 / nal_hrd=vbr / ip_ratio=1.40 / aq=1:1.00
Language                                 : English
Default                                  : Yes
Forced                                   : No
Audio #1
ID                                       : 2
Format                                   : AC-3
Format/Info                              : Audio Coding 3
Mode extension                           : CM (complete main)
Format settings, Endianness              : Big
Codec ID                                 : A_AC3
Duration                                 : 51mn 43s
Bit rate mode                            : Constant
Bit rate                                 : 384 Kbps
Channel(s)                               : 6 channels
Channel positions                        : Front: L C R, Side: L R, LFE
Sampling rate                            : 48.0 KHz
Frame rate                               : 31.250 fps (1536 spf)
Compression mode                         : Lossy
Stream size                              : 142 MiB (13%)
Title                                    : LostFilm
Language                                 : Russian
Default                                  : Yes
Forced                                   : No
Audio #2
ID                                       : 3
Format                                   : AC-3
Format/Info                              : Audio Coding 3
Mode extension                           : CM (complete main)
Format settings, Endianness              : Big
Codec ID                                 : A_AC3
Duration                                 : 51mn 43s
Bit rate mode                            : Constant
Bit rate                                 : 384 Kbps
Channel(s)                               : 6 channels
Channel positions                        : Front: L C R, Side: L R, LFE
Sampling rate                            : 48.0 KHz
Frame rate                               : 31.250 fps (1536 spf)
Compression mode                         : Lossy
Stream size                              : 142 MiB (13%)
Title                                    : English
Language                                 : English
Default                                  : No
Forced                                   : No
Text
ID                                       : 4
Format                                   : UTF-8
Codec ID                                 : S_TEXT/UTF8
Codec ID/Info                            : UTF-8 Plain Text
Title                                    : eng-sub
Language                                 : English
Default                                  : No
Forced                                   : No

Скриншоты

Раздача ведется путем добавления новых серий

Когда раздача ведётся путём добавления новых серий, при каждом добавлении создётся новый торрент. Чтобы начать докачку новой серии, пользователям необходимо сделать следующее:
(1) остановить скачивание,
(2) удалить старый торрент у себя из клиента (старые серии удалять не надо),
(3) скачать новый торрент и запустить его у себя в клиенте вместо старого, при этом указать клиенту путь в старую папку, куда и должно происходить скачивание новых серий.
Ваш клиент при этом должен произвести хеширование (проверку) старой папки (если не производит сам - помогите ему сделать это), и будет докачивать только те серии, которых у вас ещё нет. Старые серии при этом не удаляются, а продолжают раздаваться!
Eсли вы уже удалили старые серии, то предотвратить повторную закачку старых серий можно, отжав галочку в соответсвующих местах при запуске нового торрента. По возможности, желательно не удалять старые серии как можно дольше, чтобы релизёр не столько продолжал раздавать старые серии, а смог сконцентрироваться на новых.
-оригинальный голос железного кулака в озвучке LostFilm
[freetreker.nl].t106.torrent 
 ЗОЛОТАЯ РАЗДАЧА! СКАЧАННОЕ НЕ ЗАСЧИТЫВАЕТСЯ! 
Торрент: Зарегистрирован [ 2017-09-15 15:51 ] · E74C9AD45F5DA8DE101522148BDB2002D0EE5EA8

Скачать .torrent

Скачать

36 KB

Статус: проверено
Скачан: 0 раз
Размер: 7,11 GB
terms.php
Похожие темы:


Последний раз редактировалось: Grandfather61 (2017-09-15 15:59), всего редактировалось 8 раз(а)
[Профиль] [ЛС]

Создавать темы 01-Сен-2017 15:17 (спустя 57 минут)

Топик был перенесен из форума Сериалы в HD1080p в форум Сериалы в HD720p
Grandfather61
 

Grandfather61 ®

Пол: Мужской

Стаж: 9 месяцев 11 дней

Сообщений: 507

Создавать темы 02-Сен-2017 09:27 (спустя 19 часов)

[Цитировать]

Раздача обновлена. Добавлена 4-я серии. Приятного просмотра!
[Профиль] [ЛС]

Grandfather61 ®

Пол: Мужской

Стаж: 9 месяцев 11 дней

Сообщений: 507

Создавать темы 05-Сен-2017 05:48 (спустя 2 дня 20 часов)

[Цитировать]

Раздача обновлена. Добавлена 5-я серии. Приятного просмотра!
[Профиль] [ЛС]

Grandfather61 ®

Пол: Мужской

Стаж: 9 месяцев 11 дней

Сообщений: 507

Создавать темы 07-Сен-2017 15:42 (спустя 2 дня 9 часов)

[Цитировать]

Раздача обновлена. Добавлена 6-я серии. Приятного просмотра!
[Профиль] [ЛС]

Grandfather61 ®

Пол: Мужской

Стаж: 9 месяцев 11 дней

Сообщений: 507

Создавать темы 10-Сен-2017 15:49 (спустя 3 дня)

[Цитировать]

Раздача обновлена. Добавлена 7-я серии. Приятного просмотра!
[Профиль] [ЛС]

Grandfather61 ®

Пол: Мужской

Стаж: 9 месяцев 11 дней

Сообщений: 507

Создавать темы 15-Сен-2017 15:58 (спустя 5 дней)

[Цитировать]

Раздача обновлена. Добавлена 8-я серия. Приятного просмотра!
[Профиль] [ЛС]
Показать сообщения:    
Ответить на тему

Текущее время: 21-Апр 00:05

Часовой пояс: UTC ± 0



Вы не можете начинать темы
Вы не можете отвечать на сообщения
Вы не можете редактировать свои сообщения
Вы не можете удалять свои сообщения
Вы не можете голосовать в опросах
Вы не можете прикреплять файлы к сообщениям
Вы можете скачивать файлы