Тетрадь смерти / Death Note (Адам Вингард) [2017, США, ужасы, фэнтези, триллер, детектив, HDTV 720p] MVO (Paradox&Omskbird)

Ответить на тему
Статистика раздачи
Размер:  2,57 GB   |    Зарегистрирован:  7 месяцев 16 дней   |    Скачан:  3 раза

Полного источника не было: 2 часа 6 минут

 
     
 
 
 
Автор Сообщение

studio_paradox ®

Пол: Мужской

Стаж: 9 месяцев 11 дней

Сообщений: 15

Создавать темы 04-Сен-2017 11:21

[Цитировать]

-Тетрадь смерти / Death Note- -Страна: США
Жанр: ужасы, фэнтези, триллер, детектив
Год выпуска: 2017
Продолжительность: 01:40:49-Перевод: Профессиональный (многоголосый закадровый) Студия Paradox&Omskbird
Cубтитры: нет
Оригинальная аудиодорожка: нет-Режиссер: Адам Вингард-В ролях: Маргарет Куэлли, Лейкит Стэнфилд, Уиллем Дефо, Нат Вулф, Шей Уигэм, Маси Ока, Майкл Шамус Уайлз, Пол МакДжиллион, Олена Медвид-Описание: Способный студент Лайт находит загадочную тетрадь смерти, которая может убить любого, чье имя в нее вписать. Парень решает начать миссию по очистке улиц от преступников. Вскоре студент-линчеватель обнаруживает, что его преследует известный профайлер ФБР, скрывающийся под псевдонимом L.- -Доп. информация: Присутствует реклама!!!-Качество видео: HDTV 720p
Формат видео: MKV-Видео: AVC/H.264, 1280x536, ~3452 kbps
Аудио: AC3, 2 ch, 192 Kbps

MediaInfo

Format : Matroska
Format version : Version 4 / Version 2
File size : 2.57 GiB
Duration : 1 h 40 min
Overall bit rate : 3 646 kb/s
Encoded date : UTC 2017-09-04 11:13:04
Writing application : mkvmerge v9.3.1 ('Mask Machine') 64bit
Writing library : libebml v1.3.4 + libmatroska v1.4.5
Video
ID : 1
Format : AVC
Format/Info : Advanced Video Codec
Format profile : Main@L3.1
Format settings, CABAC : Yes
Format settings, ReFrames : 3 frames
Codec ID : V_MPEG4/ISO/AVC
Duration : 1 h 40 min
Bit rate : 3 452 kb/s
Width : 1 280 pixels
Height : 536 pixels
Display aspect ratio : 2.40:1
Frame rate mode : Constant
Frame rate : 23.976 (24000/1001) FPS
Standard : NTSC
Color space : YUV
Chroma subsampling : 4:2:0
Bit depth : 8 bits
Scan type : Progressive
Bits/(Pixel*Frame) : 0.210
Stream size : 2.43 GiB (95%)
Language : English
Default : Yes
Forced : No
Color range : Limited
Color primaries : BT.601 NTSC
Transfer characteristics : BT.601
Matrix coefficients : BT.601
Audio
ID : 2
Format : AC-3
Format/Info : Audio Coding 3
Mode extension : CM (complete main)
Format settings, Endianness : Big
Codec ID : A_AC3
Duration : 1 h 40 min
Bit rate mode : Constant
Bit rate : 192 kb/s
Channel(s) : 2 channels
Channel positions : Front: L R
Sampling rate : 48.0 kHz
Frame rate : 31.250 FPS (1536 spf)
Compression mode : Lossy
Stream size : 138 MiB (5%)
Default : Yes
Forced : No

Скриншоты

[freetreker.nl].t109.torrent 
 ЗОЛОТАЯ РАЗДАЧА! СКАЧАННОЕ НЕ ЗАСЧИТЫВАЕТСЯ! 
Торрент: Зарегистрирован [ 2017-09-04 11:21 ] · 5E23645BD3E85708B5D6539031F48EDF1335E805

Скачать .torrent

Скачать

13 KB

Статус: проверено
Скачан: 3 раз
Размер: 2,57 GB
terms.php
Похожие темы:
[Профиль] [ЛС]

Создавать темы 04-Сен-2017 11:39 (спустя 18 минут)

Топик был перенесен из форума Фильмы в HD1080p в форум Фильмы в HD720p
admin
 
Показать сообщения:    
Ответить на тему

Текущее время: 21-Апр 00:10

Часовой пояс: UTC ± 0



Вы не можете начинать темы
Вы не можете отвечать на сообщения
Вы не можете редактировать свои сообщения
Вы не можете удалять свои сообщения
Вы не можете голосовать в опросах
Вы не можете прикреплять файлы к сообщениям
Вы можете скачивать файлы