Орвилл / The Orvill / Сезон 1 / Серии 1-12 (12) (Сет МакФарлейн) [2017, США, фантастика, драма, комедия, WEB-DL 1080p] MVO (OMSKBIRD) Original + Eng Subs

Ответить на тему
Статистика раздачи
Размер:  22,04 GB   |    Зарегистрирован:  4 месяца 17 дней   |    Скачан:  1 раз

Полного источника не было: 3 месяца 19 дней

 
     
 
 
 
Автор Сообщение

Gater ®

Пол: Не указан

Стаж: 9 месяцев 17 дней

Сообщений: 972

Создавать темы 12-Сен-2017 13:16

[Цитировать]

-Орвилл / Orvill- Год выпуска • 2017
Страна • США
Жанр • Фантастика, драма, комедия
Продолжительность • ~44 мин.
Перевод
• Профессиональный (многоголосый, закадровый) "OMSKBIRD records"
-Создатель • Сет МакФарлейн
В ролях • Сет МакФарлейн, Чад Л. Коулмэн, Скотт Граймз, Марк Джексон, Пенни Джонсон, Дж. Ли, Питер Макон, Эдрианн Палики, Холстон Сейдж, Ларри Джо Кэмпбелл и др.-Описание • Сериал является пародией на франшизу «Звездный путь». События развернутся в далёком будущем в 2300 году. Сюжет повествует о приключениях исследовательского звездолёта «Орвилл», принадлежащего космическому флоту Земли. Разношёрстному экипажу корабля предстоит столкнуться с множеством испытаний как личного, так и вселенского масштаба.-Реклама: Присутствует.-
Качество: iTunes WEB-DL 1080p
Формат: MKV
Видео: MPEG-4 AVC / ~ 5000 kbps / 1916х1076p / 23.976 fps / 16:9 / ~ 0.102 bit/pixel / High Level 4.0
Аудио:
Русский / Dolby Digital 5.1 / 48 kHz / 384 kbps
English / Dolby Digital 5.1 / 48 kHz / 384 kbps
Субтитры: Eng / SRT-

- -

Над переводом работали

ПереводНикита Коваль
Роли озвучивалиПавел Ярощик, Дмитрий Виноградов, Екатерина Кабашова
ЗвукорежиссерПавел Квентов
ПостерКсения Просветова
Релиз подготовилGater

MediaInfo


General
Unique ID : 240570376132748694869609680256001609660 (0xB4FC2B4AF78F559C8DE7744335BF8FBC)
Complete name : F:\Мои Документы\Видео\РАЗДАЧИ\Орвилл\Orville S01 WEB-DL 1080p (OMSKBIRD)\Orville S01E01 WEB-DL 1080p (OMSKBIRD).mkv
Format : Matroska
Format version : Version 2
File size : 1.90 GiB
Duration : 46mn 0s
Overall bit rate : 5 918 Kbps
Encoded date : UTC 2017-09-12 12:36:45
Writing application : mkvmerge v4.0.0 ('The Stars were mine') сборка от Jun 6 2010 16:18:42
Writing library : libebml v1.0.0 + libmatroska v1.0.0
Video
ID : 1
Format : AVC
Format/Info : Advanced Video Codec
Format profile : High@L4.0
Format settings, CABAC : Yes
Format settings, ReFrames : 4 frames
Codec ID : V_MPEG4/ISO/AVC
Duration : 46mn 0s
Bit rate : 5 032 Kbps
Width : 1 916 pixels
Height : 1 076 pixels
Display aspect ratio : 16:9
Frame rate : 23.976 fps
Color space : YUV
Chroma subsampling : 4:2:0
Bit depth : 8 bits
Scan type : Progressive
Bits/(Pixel*Frame) : 0.102
Stream size : 1.62 GiB (85%)
Language : English
Default : No
Forced : No
Color primaries : BT.709-5, BT.1361, IEC 61966-2-4, SMPTE RP177
Transfer characteristics : BT.709-5, BT.1361
Matrix coefficients : BT.709-5, BT.1361, IEC 61966-2-4 709, SMPTE RP177
Audio #1
ID : 2
Format : AC-3
Format/Info : Audio Coding 3
Mode extension : CM (complete main)
Format settings, Endianness : Big
Codec ID : A_AC3
Duration : 46mn 0s
Bit rate mode : Constant
Bit rate : 384 Kbps
Channel(s) : 6 channels
Channel positions : Front: L C R, Side: L R, LFE
Sampling rate : 48.0 KHz
Bit depth : 16 bits
Compression mode : Lossy
Delay relative to video : -42ms
Stream size : 126 MiB (6%)
Language : Russian
Default : Yes
Forced : No
Audio #2
ID : 3
Format : AC-3
Format/Info : Audio Coding 3
Mode extension : CM (complete main)
Format settings, Endianness : Big
Codec ID : A_AC3
Duration : 46mn 0s
Bit rate mode : Constant
Bit rate : 384 Kbps
Channel(s) : 6 channels
Channel positions : Front: L C R, Side: L R, LFE
Sampling rate : 48.0 KHz
Bit depth : 16 bits
Compression mode : Lossy
Delay relative to video : -42ms
Stream size : 126 MiB (6%)
Language : English
Default : No
Forced : No
Text
ID : 4
Format : UTF-8
Codec ID : S_TEXT/UTF8
Codec ID/Info : UTF-8 Plain Text
Language : English
Default : No
Forced : No
[freetreker.nl].t118.torrent 
Торрент: Зарегистрирован [ 2017-12-09 08:45 ] · 594D7590413FB87721E4D9DD34088E89ECFF69A4

Скачать .torrent

Скачать

56 KB

Статус: проверено
Скачан: 1 раз
Размер: 22,04 GB
terms.php
Похожие темы:


Последний раз редактировалось: Gater (2017-12-09 08:45), всего редактировалось 10 раз(а)
[Профиль] [ЛС]

Gater ®

Пол: Не указан

Стаж: 9 месяцев 17 дней

Сообщений: 972

Создавать темы 19-Сен-2017 14:15 (спустя 7 дней)

[Цитировать]

+2
[Профиль] [ЛС]

Gater ®

Пол: Не указан

Стаж: 9 месяцев 17 дней

Сообщений: 972

Создавать темы 22-Сен-2017 18:19 (спустя 3 дня)

[Цитировать]

+3
[Профиль] [ЛС]

Gater ®

Пол: Не указан

Стаж: 9 месяцев 17 дней

Сообщений: 972

Создавать темы 30-Сен-2017 06:40 (спустя 7 дней)

[Цитировать]

+4
[Профиль] [ЛС]

Gater ®

Пол: Не указан

Стаж: 9 месяцев 17 дней

Сообщений: 972

Создавать темы 07-Окт-2017 08:47 (спустя 7 дней)

[Цитировать]

+5
[Профиль] [ЛС]

Gater ®

Пол: Не указан

Стаж: 9 месяцев 17 дней

Сообщений: 972

Создавать темы 14-Окт-2017 07:19 (спустя 6 дней)

[Цитировать]

+6
[Профиль] [ЛС]

Gater ®

Пол: Не указан

Стаж: 9 месяцев 17 дней

Сообщений: 972

Создавать темы 28-Окт-2017 18:15 (спустя 14 дней)

[Цитировать]

+7
[Профиль] [ЛС]

Gater ®

Пол: Не указан

Стаж: 9 месяцев 17 дней

Сообщений: 972

Создавать темы 04-Ноя-2017 08:55 (спустя 6 дней)

[Цитировать]

+8
[Профиль] [ЛС]

Gater ®

Пол: Не указан

Стаж: 9 месяцев 17 дней

Сообщений: 972

Создавать темы 11-Ноя-2017 17:26 (спустя 7 дней)

[Цитировать]

+9
[Профиль] [ЛС]

Gater ®

Пол: Не указан

Стаж: 9 месяцев 17 дней

Сообщений: 972

Создавать темы 17-Ноя-2017 18:32 (спустя 6 дней)

[Цитировать]

+10
[Профиль] [ЛС]

Gater ®

Пол: Не указан

Стаж: 9 месяцев 17 дней

Сообщений: 972

Создавать темы 02-Дек-2017 07:59 (спустя 14 дней)

[Цитировать]

+11
[Профиль] [ЛС]

Gater ®

Пол: Не указан

Стаж: 9 месяцев 17 дней

Сообщений: 972

Создавать темы 09-Дек-2017 08:47 (спустя 7 дней)

[Цитировать]

+12
[Профиль] [ЛС]
Показать сообщения:    
Ответить на тему

Текущее время: 26-Апр 19:13

Часовой пояс: UTC ± 0



Вы не можете начинать темы
Вы не можете отвечать на сообщения
Вы не можете редактировать свои сообщения
Вы не можете удалять свои сообщения
Вы не можете голосовать в опросах
Вы не можете прикреплять файлы к сообщениям
Вы можете скачивать файлы