Орвилл / The Orvill / Сезон 1 / Серии 1-12 (12) (Сет МакФарлейн) [2017, США, фантастика, драма, комедия, WEB-DLRip] MVO (OMSKBIRD)

Ответить на тему
Статистика раздачи
Размер:  7,37 GB   |    Зарегистрирован:  9 месяцев 10 дней   |    Скачан:  1 раз

Полного источника не было: 8 месяцев 12 дней

 
     
 
 
 
Автор Сообщение

Gater ®

Пол: Не указан

Стаж: 1 год 2 месяца

Сообщений: 1375

Создавать темы 12-Сен-2017 13:18

[Цитировать]

-Орвилл / The Orvill- Год выпуска • 2017
Страна • США
Жанр • Фантастика, драма, комедия
Продолжительность • ~44 мин.
Перевод
• Профессиональный (многоголосый, закадровый) "OMSKBIRD records"
-Создатель • Сет МакФарлейн
В ролях • Сет МакФарлейн, Чад Л. Коулмэн, Скотт Граймз, Марк Джексон, Пенни Джонсон, Дж. Ли, Питер Макон, Эдрианн Палики, Холстон Сейдж, Ларри Джо Кэмпбелл и др.-Описание • Сериал является пародией на франшизу «Звездный путь». События развернутся в далёком будущем в 2300 году. Сюжет повествует о приключениях исследовательского звездолёта «Орвилл», принадлежащего космическому флоту Земли. Разношёрстному экипажу корабля предстоит столкнуться с множеством испытаний как личного, так и вселенского масштаба.-Реклама: Присутствует.-
Качество: iTunes WEB-DLRip
Формат: AVI
Видео: Xvid / ~ 1800 kbps / 720х400p / 23.976 fps / 16:9
Аудио:
Русский / Dolby Digital 2.0 / 48 kHz / 192 kbps-

- -

Над переводом работали

ПереводНикита Коваль
Роли озвучивалиПавел Ярощик, Дмитрий Виноградов, Екатерина Кабашова
ЗвукорежиссерПавел Квентов
ПостерКсения Просветова
Релиз подготовилGater

MediaInfo


General
Complete name : F:\Мои Документы\Видео\РАЗДАЧИ\Орвилл\Orville S01 WEB-DLRip (OMSKBIRD)\Orville S01E01 WEB-DLRip (OMSKBIRD).avi
Format : AVI
Format/Info : Audio Video Interleave
File size : 646 MiB
Duration : 45mn 36s
Overall bit rate : 1 980 Kbps
Writing application : VirtualDubMod 1.5.10.3 | www.virtualdub-fr.org || (build 2550/release)
Writing library : VirtualDubMod build 2550/release
Video
ID : 0
Format : MPEG-4 Visual
Format profile : Advanced Simple@L5
Format settings, BVOP : 2
Format settings, QPel : No
Format settings, GMC : No warppoints
Format settings, Matrix : Default (H.263)
Codec ID : XVID
Codec ID/Hint : XviD
Duration : 45mn 36s
Bit rate : 1 778 Kbps
Width : 720 pixels
Height : 400 pixels
Display aspect ratio : 16:9
Frame rate : 23.976 fps
Color space : YUV
Chroma subsampling : 4:2:0
Bit depth : 8 bits
Scan type : Progressive
Compression mode : Lossy
Bits/(Pixel*Frame) : 0.257
Stream size : 580 MiB (90%)
Writing library : XviD 1.2.1 (UTC 2008-12-04)
Audio
ID : 1
Format : AC-3
Format/Info : Audio Coding 3
Mode extension : CM (complete main)
Format settings, Endianness : Big
Codec ID : 2000
Duration : 45mn 36s
Bit rate mode : Constant
Bit rate : 192 Kbps
Channel(s) : 2 channels
Channel positions : Front: L R
Sampling rate : 48.0 KHz
Bit depth : 16 bits
Compression mode : Lossy
Stream size : 62.6 MiB (10%)
Alignment : Split accross interleaves
Interleave, duration : 42 ms (1.00 video frame)
Interleave, preload duration : 500 ms
[freetreker.nl].t120.torrent 
Торрент: Зарегистрирован [ 2017-12-09 08:45 ] · A32DF7225294CB5F4964FA5F62396D49ECBF2685

Скачать .torrent

Скачать

20 KB

Статус: проверено
Скачан: 1 раз
Размер: 7,37 GB
terms.php
Похожие темы:


Последний раз редактировалось: Gater (2017-12-09 08:45), всего редактировалось 10 раз(а)
[Профиль] [ЛС]

Gater ®

Пол: Не указан

Стаж: 1 год 2 месяца

Сообщений: 1375

Создавать темы 19-Сен-2017 14:15 (спустя 7 дней)

[Цитировать]

+2
[Профиль] [ЛС]

Gater ®

Пол: Не указан

Стаж: 1 год 2 месяца

Сообщений: 1375

Создавать темы 22-Сен-2017 18:17 (спустя 3 дня)

[Цитировать]

+3
[Профиль] [ЛС]

Gater ®

Пол: Не указан

Стаж: 1 год 2 месяца

Сообщений: 1375

Создавать темы 30-Сен-2017 06:38 (спустя 7 дней)

[Цитировать]

+4
[Профиль] [ЛС]

Gater ®

Пол: Не указан

Стаж: 1 год 2 месяца

Сообщений: 1375

Создавать темы 07-Окт-2017 08:48 (спустя 7 дней)

[Цитировать]

+5
[Профиль] [ЛС]

Gater ®

Пол: Не указан

Стаж: 1 год 2 месяца

Сообщений: 1375

Создавать темы 14-Окт-2017 07:20 (спустя 6 дней)

[Цитировать]

+6
[Профиль] [ЛС]

Gater ®

Пол: Не указан

Стаж: 1 год 2 месяца

Сообщений: 1375

Создавать темы 28-Окт-2017 18:15 (спустя 14 дней)

[Цитировать]

+7
[Профиль] [ЛС]

Gater ®

Пол: Не указан

Стаж: 1 год 2 месяца

Сообщений: 1375

Создавать темы 04-Ноя-2017 08:54 (спустя 6 дней)

[Цитировать]

+8
[Профиль] [ЛС]

Gater ®

Пол: Не указан

Стаж: 1 год 2 месяца

Сообщений: 1375

Создавать темы 11-Ноя-2017 17:25 (спустя 7 дней)

[Цитировать]

+9
[Профиль] [ЛС]

Gater ®

Пол: Не указан

Стаж: 1 год 2 месяца

Сообщений: 1375

Создавать темы 17-Ноя-2017 18:32 (спустя 6 дней)

[Цитировать]

+10
[Профиль] [ЛС]

Gater ®

Пол: Не указан

Стаж: 1 год 2 месяца

Сообщений: 1375

Создавать темы 02-Дек-2017 07:59 (спустя 14 дней)

[Цитировать]

+11
[Профиль] [ЛС]

Gater ®

Пол: Не указан

Стаж: 1 год 2 месяца

Сообщений: 1375

Создавать темы 09-Дек-2017 08:47 (спустя 7 дней)

[Цитировать]

+12
[Профиль] [ЛС]
Показать сообщения:    
Ответить на тему

Текущее время: 19-Сен 14:28

Часовой пояс: UTC ± 0



Вы не можете начинать темы
Вы не можете отвечать на сообщения
Вы не можете редактировать свои сообщения
Вы не можете удалять свои сообщения
Вы не можете голосовать в опросах
Вы не можете прикреплять файлы к сообщениям
Вы можете скачивать файлы