Звёздный путь: Дискавери / Star Trek: Discovery / Сезон: 1 / Серии: 1-15 из 15 (Брайан Фуллер) [2017, США, фантастика, WEB-DL 1080p] MVO (OmskBird)

Ответить на тему
Статистика раздачи
Размер:  35,27 GB   |    Зарегистрирован:  7 месяцев 10 дней   |    Скачан:  0 раз

Полного источника не было: 6 месяцев 3 дня

 
     
 
 
 
Автор Сообщение

Grandfather61 ®

Пол: Мужской

Стаж: 1 год 2 месяца

Сообщений: 583

Создавать темы 26-Сен-2017 11:17

[Цитировать]

- Звёздный путь: Дискавери / Star Trek: Discovery -- Год выпуска: 2017
Страна: США
Жанр: фантастика
Продолжительность: ~00:43:00
Перевод: Любительский (многоголосый закадровый) OmskBird-Режиссёр: Брайан Фуллер
В ролях: Джейсон Айзекс, Даг Джонс, Шазад Латиф, Сонекуа Мартин-Грин, Молик Панчоли, Энтони Рэпп, Мишель Йео, Кеннет Митчелл, Дэймон Рунян и другие.-Описание: За 10 лет до начала истории, описанной в оригинальном сериале «Звёздный путь», экипаж корабля USS Discovery NCC-1031 отправляется в путешествие, чтобы изучать глубокий космос и открыть новые миры и цивилизации.-Доп. информация:
Релиз-группа:
Перевод: Николай Исаков
Роли озвучивали: Ольга Федорова, Александр Дасевич, Семён Ващенко, Павел Ярощик
Звукорежиссер: Павел Квентов
Постер: Ксения Просветова
-Ссылка на предыдущие и альтернативные раздачи-Качество: WEB-DL 1080p
Формат: MKV
Видео: AVC/H.264, 1920x1080 (16:9), ~3310 kbps, 23.976 fps
Аудио # Rus: AC3, 48 kHz, 6 ch, 384 kbps
Аудио # Eng: AC3, 48 kHz, 6 ch, 384 kbps
Субтитры: английские
Реклама: присутствуют аудио вставки рекламы (в начале и в конце по 10 сек.)

MediaInfo

General
Unique ID                                : 184387495654814364710856760602537009314 (0x8AB7BD6BBD34132F9CD7D193B49CA0A2)
Complete name                            : G:\Films\Star.Trek.Discovery.S01.1080p.WEBRip.OmskBird\Star.Trek.Discovery.S01E01.1080p.WEB-DL.OmskBird.mkv
Format                                   : Matroska
Format version                           : Version 4 / Version 2
File size                                : 1.27 GiB
Duration                                 : 43mn 31s
Overall bit rate mode                    : Variable
Overall bit rate                         : 4 162 Kbps
Encoded date                             : UTC 2017-09-26 10:26:20
Writing application                      : mkvmerge v15.0.0 ('Duel with the Devil') 64-bit
Writing library                          : libebml v1.3.5 + libmatroska v1.4.5
Cover                                    : Yes
Attachments                              : small_cover.jpg / small_cover_land.jpg / cover.jpg / cover_land.jpg
Video
ID                                       : 1
Format                                   : AVC
Format/Info                              : Advanced Video Codec
Format profile                           : Main@L4
Format settings, CABAC                   : Yes
Format settings, ReFrames                : 3 frames
Codec ID                                 : V_MPEG4/ISO/AVC
Duration                                 : 43mn 31s
Bit rate mode                            : Variable
Bit rate                                 : 3 311 Kbps
Nominal bit rate                         : 3 480 Kbps
Maximum bit rate                         : 5 220 Kbps
Width                                    : 1 920 pixels
Height                                   : 1 080 pixels
Display aspect ratio                     : 16:9
Frame rate mode                          : Constant
Frame rate                               : 23.976 (24000/1001) fps
Color space                              : YUV
Chroma subsampling                       : 4:2:0
Bit depth                                : 8 bits
Scan type                                : Progressive
Bits/(Pixel*Frame)                       : 0.067
Stream size                              : 1.01 GiB (80%)
Writing library                          : x264 core 148
Encoding settings                        : cabac=1 / ref=3 / deblock=1:0:0 / analyse=0x1:0x111 / me=umh / subme=10 / psy=1 / psy_rd=1.00:0.00 / mixed_ref=1 / me_range=24 / chroma_me=1 / trellis=2 / 8x8dct=0 / cqm=0 / deadzone=21,11 / fast_pskip=1 / chroma_qp_offset=-2 / threads=8 / lookahead_threads=1 / sliced_threads=0 / nr=0 / decimate=1 / interlaced=0 / bluray_compat=0 / stitchable=1 / constrained_intra=0 / bframes=2 / b_pyramid=0 / b_adapt=2 / b_bias=0 / direct=3 / weightb=1 / open_gop=0 / weightp=2 / keyint=48 / keyint_min=25 / scenecut=0 / intra_refresh=0 / rc_lookahead=48 / rc=2pass / mbtree=1 / bitrate=3480 / ratetol=1.0 / qcomp=0.50 / qpmin=6 / qpmax=51 / qpstep=4 / cplxblur=20.0 / qblur=0.5 / vbv_maxrate=5220 / vbv_bufsize=6960 / nal_hrd=vbr / filler=0 / ip_ratio=1.40 / aq=1:1.00
Language                                 : English
Default                                  : Yes
Forced                                   : No
Audio #1
ID                                       : 2
Format                                   : AC-3
Format/Info                              : Audio Coding 3
Mode extension                           : CM (complete main)
Format settings, Endianness              : Big
Codec ID                                 : A_AC3
Duration                                 : 43mn 31s
Bit rate mode                            : Constant
Bit rate                                 : 384 Kbps
Channel(s)                               : 6 channels
Channel positions                        : Front: L C R, Side: L R, LFE
Sampling rate                            : 48.0 KHz
Frame rate                               : 31.250 fps (1536 spf)
Compression mode                         : Lossy
Stream size                              : 120 MiB (9%)
Title                                    : OmskBird 5.1
Language                                 : Russian
Default                                  : Yes
Forced                                   : No
Audio #2
ID                                       : 3
Format                                   : AC-3
Format/Info                              : Audio Coding 3
Mode extension                           : CM (complete main)
Format settings, Endianness              : Big
Codec ID                                 : A_AC3
Duration                                 : 43mn 31s
Bit rate mode                            : Constant
Bit rate                                 : 384 Kbps
Channel(s)                               : 6 channels
Channel positions                        : Front: L C R, Side: L R, LFE
Sampling rate                            : 48.0 KHz
Frame rate                               : 31.250 fps (1536 spf)
Compression mode                         : Lossy
Stream size                              : 120 MiB (9%)
Title                                    : eng
Language                                 : English
Default                                  : No
Forced                                   : No
Text
ID                                       : 4
Format                                   : UTF-8
Codec ID                                 : S_TEXT/UTF8
Codec ID/Info                            : UTF-8 Plain Text
Title                                    : SDH
Language                                 : English
Default                                  : No
Forced                                   : No

Скриншоты

Внимание! Раздача ведётся путём добавления новых серий

Внимание! Раздача ведётся путём добавления новых серий; при каждом добавлении создаётся новый торрент. Чтобы начать докачку новой серии, пользователям необходимо сделать следующее:
(1) остановить скачивание,
(2) удалить старый торрент у себя из клиента (старые серии удалять не надо),
(3) скачать новый торрент и запустить его у себя в клиенте вместо старого, при этом указать клиенту путь в старую папку куда и должно происходить скачивание новых серий.
Ваш клиент при этом должен произвести хеширование (проверку) старой папки (если не производит сам - помогите ему сделать это), и будет докачивать только те серии которых у вас ещё нет. Старые серии при этом не удаляются, а продолжают раздаваться!
Eсли вы уже удалили старые серии, то предотвратить повторную закачку старых серий можно, отжав галочку в соответствующих местах при запуске нового торрента. По возможности, желательно не удалять старые серии как можно дольше чтобы релизёр не столько продолжал раздавать старые серии, а смог сконцентрироваться на новых.
[freetreker.nl].t132.torrent 
Торрент: Зарегистрирован [ 2018-02-13 06:02 ] · B1442B79D05BB45D18B617325C7F2748CA6374C5

Скачать .torrent

Скачать

90 KB

Статус: проверено
Скачан: 0 раз
Размер: 35,27 GB
terms.php
Похожие темы:


Последний раз редактировалось: Grandfather61 (2018-02-13 06:02), всего редактировалось 13 раз(а)
[Профиль] [ЛС]

Grandfather61 ®

Пол: Мужской

Стаж: 1 год 2 месяца

Сообщений: 583

Создавать темы 13-Фев-2018 06:03 (спустя 4 месяца 16 дней)

[Цитировать]

Добавлена 15-я серия. Приятного просмотра!
[Профиль] [ЛС]
Показать сообщения:    
Ответить на тему

Текущее время: 23-Сен 14:35

Часовой пояс: UTC ± 0



Вы не можете начинать темы
Вы не можете отвечать на сообщения
Вы не можете редактировать свои сообщения
Вы не можете удалять свои сообщения
Вы не можете голосовать в опросах
Вы не можете прикреплять файлы к сообщениям
Вы можете скачивать файлы