Звёздный путь: Дискавери / Star Trek: Discovery / Сезон: 1 / Серии: 1-15 из 15 (Брайан Фуллер) [2017, США, фантастика, WEB-DLRip] MVO (OmskBird)

Ответить на тему
Статистика раздачи
Размер:  9,47 GB   |    Зарегистрирован:  9 месяцев 27 дней   |    Скачан:  0 раз

Полного источника не было: 8 месяцев 22 дня

 
     
 
 
 
Автор Сообщение

Grandfather61 ®

Пол: Мужской

Стаж: 1 год 5 месяцев

Сообщений: 641

Создавать темы 26-Сен-2017 12:57

[Цитировать]

- Звёздный путь: Дискавери / Star Trek: Discovery -- Год выпуска: 2017
Страна: США
Жанр: фантастика
Продолжительность: ~00:43:00
Перевод: Профессиональный (многоголосый закадровый) OmskBird-Режиссёр: Брайан Фуллер
В ролях: Джейсон Айзекс, Даг Джонс, Шазад Латиф, Сонекуа Мартин-Грин, Молик Панчоли, Энтони Рэпп, Мишель Йео, Кеннет Митчелл, Дэймон Рунян и другие.-Описание: За 10 лет до начала истории, описанной в оригинальном сериале «Звёздный путь», экипаж корабля USS Discovery NCC-1031 отправляется в путешествие, чтобы изучать глубокий космос и открыть новые миры и цивилизации.-Доп. информация:
Релиз-группа:
Перевод: Николай Исаков
Роли озвучивали: Ольга Федорова, Александр Дасевич, Семён Ващенко, Павел Ярощик
Звукорежиссер: Павел Квентов
Постер: Ксения Просветова
-Ссылка на предыдущие и альтернативные раздачи-Качество: WEB-DLRip
Формат: AVI
Видео: 720x352 (2.05:1), 23.976 fps, XviD ~1800 kbps avg, 0.30 bit/pixel
Аудио # Rus: AC3, 48 kHz, 2 ch, 192 kbps
Реклама: присутствуют аудио вставки рекламы (в начале и в конце по 10 сек.)

MediaInfo

General
Complete name                            : G:\Films\Star.Trek.Discovery.S01.400p.WEBRip.OmskBird\Star.Trek.Discovery.S01E01.WEBRip.OmskBird.avi
Format                                   : AVI
Format/Info                              : Audio Video Interleave
File size                                : 623 MiB
Duration                                 : 43mn 28s
Overall bit rate                         : 2 002 Kbps
Writing application                      : VirtualDubMod 1.5.10.3 (build 2550/release)
Writing library                          : VirtualDubMod build 2550/release
Video
ID                                       : 0
Format                                   : MPEG-4 Visual
Format profile                           : Advanced [email protected]
Format settings, BVOP                    : 1
Format settings, QPel                    : No
Format settings, GMC                     : No warppoints
Format settings, Matrix                  : Default (MPEG)
Codec ID                                 : XVID
Codec ID/Hint                            : XviD
Duration                                 : 43mn 28s
Bit rate                                 : 1 801 Kbps
Width                                    : 720 pixels
Height                                   : 352 pixels
Display aspect ratio                     : 2.045
Frame rate                               : 23.976 (23976/1000) fps
Color space                              : YUV
Chroma subsampling                       : 4:2:0
Bit depth                                : 8 bits
Scan type                                : Progressive
Compression mode                         : Lossy
Bits/(Pixel*Frame)                       : 0.296
Stream size                              : 560 MiB (90%)
Writing library                          : XviD 73
Audio
ID                                       : 1
Format                                   : AC-3
Format/Info                              : Audio Coding 3
Mode extension                           : CM (complete main)
Format settings, Endianness              : Big
Codec ID                                 : 2000
Duration                                 : 43mn 28s
Bit rate mode                            : Constant
Bit rate                                 : 192 Kbps
Channel(s)                               : 2 channels
Channel positions                        : Front: L R
Sampling rate                            : 48.0 KHz
Frame rate                               : 31.250 fps (1536 spf)
Compression mode                         : Lossy
Stream size                              : 59.7 MiB (10%)
Alignment                                : Split accross interleaves
Interleave, duration                     : 42 ms (1.00 video frame)
Interleave, preload duration             : 500 ms

Скриншоты

Внимание! Раздача ведётся путём добавления новых серий

Внимание! Раздача ведётся путём добавления новых серий; при каждом добавлении создаётся новый торрент. Чтобы начать докачку новой серии, пользователям необходимо сделать следующее:
(1) остановить скачивание,
(2) удалить старый торрент у себя из клиента (старые серии удалять не надо),
(3) скачать новый торрент и запустить его у себя в клиенте вместо старого, при этом указать клиенту путь в старую папку куда и должно происходить скачивание новых серий.
Ваш клиент при этом должен произвести хеширование (проверку) старой папки (если не производит сам - помогите ему сделать это), и будет докачивать только те серии которых у вас ещё нет. Старые серии при этом не удаляются, а продолжают раздаваться!
Eсли вы уже удалили старые серии, то предотвратить повторную закачку старых серий можно, отжав галочку в соответствующих местах при запуске нового торрента. По возможности, желательно не удалять старые серии как можно дольше чтобы релизёр не столько продолжал раздавать старые серии, а смог сконцентрироваться на новых.
[freetreker.nl].t134.torrent 
Торрент: Зарегистрирован [ 2018-02-13 05:56 ] · 0F2ADAB60041D955311F634D1A24544519614F9F

Скачать .torrent

Скачать

26 KB

Статус: проверено
Скачан: 0 раз
Размер: 9,47 GB
terms.php
Похожие темы:


Последний раз редактировалось: Grandfather61 (2018-02-13 05:56), всего редактировалось 13 раз(а)
[Профиль] [ЛС]

Grandfather61 ®

Пол: Мужской

Стаж: 1 год 5 месяцев

Сообщений: 641

Создавать темы 13-Фев-2018 05:57 (спустя 4 месяца 16 дней)

[Цитировать]

Добавлена 15-я серия. Приятного просмотра!
[Профиль] [ЛС]
Показать сообщения:    
Ответить на тему

Текущее время: 12-Дек 07:26

Часовой пояс: UTC ± 0



Вы не можете начинать темы
Вы не можете отвечать на сообщения
Вы не можете редактировать свои сообщения
Вы не можете удалять свои сообщения
Вы не можете голосовать в опросах
Вы не можете прикреплять файлы к сообщениям
Вы можете скачивать файлы