Изгоняющий дьявола / The Exorcist / Сезон 2 / Серии 1-10 (10) (Джереми Слэйтер) [2017, США, ужасы, триллер, WEB-DL 1080p] MVO (OMSKBIRD) Original + Eng Subs

Ответить на тему
Статистика раздачи
Размер:  27,46 GB   |    Зарегистрирован:  7 месяцев 2 дня   |    Скачан:  1 раз

Полного источника не было: 6 месяцев 2 дня

 
     
 
 
 
Автор Сообщение

Gater ®

Пол: Не указан

Стаж: 1 год

Сообщений: 1152

Создавать темы 01-Окт-2017 07:56

[Цитировать]

-Изгоняющий дьявола / The Exorcist- Год выпуска • 2017
Страна • США
Жанр • ужасы, триллер
Продолжительность • ~44 мин.
Перевод
• Профессиональный (многоголосый, закадровый) "OMSKBIRD records"
-Создатель • Джереми Слэйтер
В ролях • Альфонсо Эррера, Бен Дэниелс, Джина Дэвис, Ханна Касулка, Брианна Хоуи, Алан Рак, Музам Маккар, Френсис Гуинан и др.-Описание • Психологический триллер, события которого перенесены в современность, повествует о смиренном, самоотверженном отце Томасе Ортеге и пылком божьем воине отце Маркусе Лэнге, которым, невзирая на разность взглядов, предстоит объединиться в неравной битве со злом в виде демонической одержимости в одной семье.-Реклама: Присутствует.-
Качество: Amazon WEB-DL 1080p
Формат: MKV
Видео: MPEG-4 AVC / ~ 9500 kbps / 1920х1080p / 23.976 fps / 16:9 / ~ 0.197 bit/pixel / High Level 4.0
Аудио:
Русский / Dolby Digital 5.1 / 48 kHz / 384 kbps
English / Dolby Digital 5.1 / 48 kHz / 384 kbps
Субтитры: Eng / SRT-

- -

Над переводом работали

ПереводНиколай Исаков
Роли озвучивалиПавел Ярощик, Андрей Астров, Анна Тух
ЗвукорежиссерПавел Квентов
ПостерКсения Просветова
Релиз подготовилGater

MediaInfo


General
Unique ID : 248603429128285784030463346653545422780 (0xBB0747624A7EA341B08836F67928DFBC)
Complete name : H:\Мои Документы\Видео\РАЗДАЧИ\Экзорцист\The Exorcist S02 WEB-DL 1080p (OMSKBIRD)\The Exorcist S02E01 WEB-DL 1080p (OMSKBIRD).mkv
Format : Matroska
Format version : Version 2
File size : 3.15 GiB
Duration : 42 min 36 s
Overall bit rate mode : Variable
Overall bit rate : 10.6 Mb/s
Encoded date : UTC 2017-10-01 07:32:19
Writing application : mkvmerge v4.0.0 ('The Stars were mine') сборка от Jun 6 2010 16:18:42
Writing library : libebml v1.0.0 + libmatroska v1.0.0
Video
ID : 1
Format : AVC
Format/Info : Advanced Video Codec
Format profile : High@L4
Format settings, CABAC : Yes
Format settings, RefFrames : 4 frames
Codec ID : V_MPEG4/ISO/AVC
Duration : 42 min 36 s
Bit rate mode : Variable
Bit rate : 9 612 kb/s
Maximum bit rate : 15.0 Mb/s
Width : 1 920 pixels
Height : 1 080 pixels
Display aspect ratio : 16:9
Frame rate mode : Constant
Frame rate : 23.976 (24000/1001) FPS
Color space : YUV
Chroma subsampling : 4:2:0
Bit depth : 8 bits
Scan type : Progressive
Bits/(Pixel*Frame) : 0.193
Stream size : 2.86 GiB (91%)
Default : No
Forced : No
Color range : Limited
Color primaries : BT.709
Transfer characteristics : BT.709
Matrix coefficients : BT.709
Audio #1
ID : 2
Format : AC-3
Format/Info : Audio Coding 3
Format settings, Endianness : Big
Codec ID : A_AC3
Duration : 42 min 36 s
Bit rate mode : Constant
Bit rate : 384 kb/s
Channel(s) : 6 channels
Channel positions : Front: L C R, Side: L R, LFE
Sampling rate : 48.0 kHz
Frame rate : 31.250 FPS (1536 SPF)
Bit depth : 16 bits
Compression mode : Lossy
Stream size : 117 MiB (4%)
Language : Russian
Service kind : Complete Main
Default : Yes
Forced : No
Audio #2
ID : 3
Format : AC-3
Format/Info : Audio Coding 3
Format settings, Endianness : Big
Codec ID : A_AC3
Duration : 42 min 36 s
Bit rate mode : Constant
Bit rate : 384 kb/s
Channel(s) : 6 channels
Channel positions : Front: L C R, Side: L R, LFE
Sampling rate : 48.0 kHz
Frame rate : 31.250 FPS (1536 SPF)
Bit depth : 16 bits
Compression mode : Lossy
Stream size : 117 MiB (4%)
Language : English
Service kind : Complete Main
Default : No
Forced : No
Text
ID : 4
Format : UTF-8
Codec ID : S_TEXT/UTF8
Codec ID/Info : UTF-8 Plain Text
Language : English
Default : No
Forced : No
[freetreker.nl].t139.torrent 
Торрент: Зарегистрирован [ 2017-12-17 07:06 ] · 05695EC75C4D02050715F795C30F0AF76F3F8548

Скачать .torrent

Скачать

70 KB

Статус: проверено
Скачан: 1 раз
Размер: 27,46 GB
terms.php
Похожие темы:


Последний раз редактировалось: Gater (2017-12-17 07:06), всего редактировалось 8 раз(а)
[Профиль] [ЛС]

Gater ®

Пол: Не указан

Стаж: 1 год

Сообщений: 1152

Создавать темы 08-Окт-2017 09:56 (спустя 7 дней)

[Цитировать]

+2
[Профиль] [ЛС]

Gater ®

Пол: Не указан

Стаж: 1 год

Сообщений: 1152

Создавать темы 15-Окт-2017 09:41 (спустя 6 дней)

[Цитировать]

Добавлена 3-ая серия.
[Профиль] [ЛС]

Gater ®

Пол: Не указан

Стаж: 1 год

Сообщений: 1152

Создавать темы 22-Окт-2017 18:17 (спустя 7 дней)

[Цитировать]

+4
[Профиль] [ЛС]

Gater ®

Пол: Не указан

Стаж: 1 год

Сообщений: 1152

Создавать темы 05-Ноя-2017 09:57 (спустя 13 дней)

[Цитировать]

+5
[Профиль] [ЛС]

Gater ®

Пол: Не указан

Стаж: 1 год

Сообщений: 1152

Создавать темы 12-Ноя-2017 10:02 (спустя 7 дней)

[Цитировать]

+6
[Профиль] [ЛС]

Gater ®

Пол: Не указан

Стаж: 1 год

Сообщений: 1152

Создавать темы 19-Ноя-2017 09:05 (спустя 6 дней)

[Цитировать]

+7
[Профиль] [ЛС]

Gater ®

Пол: Не указан

Стаж: 1 год

Сообщений: 1152

Создавать темы 03-Дек-2017 19:59 (спустя 14 дней)

[Цитировать]

Добавлена 8-ая серия
[Профиль] [ЛС]

Gater ®

Пол: Не указан

Стаж: 1 год

Сообщений: 1152

Создавать темы 09-Дек-2017 18:30 (спустя 5 дней)

[Цитировать]

+9
[Профиль] [ЛС]

Gater ®

Пол: Не указан

Стаж: 1 год

Сообщений: 1152

Создавать темы 17-Дек-2017 07:07 (спустя 7 дней)

[Цитировать]

+10
Финал сезона.
[Профиль] [ЛС]
Показать сообщения:    
Ответить на тему

Текущее время: 19-Июл 19:35

Часовой пояс: UTC ± 0



Вы не можете начинать темы
Вы не можете отвечать на сообщения
Вы не можете редактировать свои сообщения
Вы не можете удалять свои сообщения
Вы не можете голосовать в опросах
Вы не можете прикреплять файлы к сообщениям
Вы можете скачивать файлы