Гриффины / Family Guy / Сезон 16 / Серии 1-20 (20) (Сет МакФарлейн / Seth MacFarlane) [2016, Ситком, комедия, пародия, WEB-DLRip 720p] MVO (OMSKBIRD)

Страницы :  1, 2  След.

Ответить на тему
Статистика раздачи
Размер:  9,12 GB   |    Зарегистрирован:  3 месяца 28 дней   |    Скачан:  0 раз

Полного источника не было: 1 месяц 24 дня

 
     
 
 
 
Автор Сообщение

Gater ®

Пол: Не указан

Стаж: 1 год 2 месяца

Сообщений: 1375

Создавать темы 03-Окт-2017 17:38

[Цитировать]

- Гриффины / Family Guy- Год выпуска • 2017
Страна • США
Жанр • Ситком, чёрный юмор, буффонада, комедия, пародия
Продолжительность • ~22 мин.
Перевод
• Профессиональный (многоголосый, закадровый) "OMSKBIRD records"
-Режиссёр • Сет МакФарлейн / Seth MacFarlane
Роли озвучивали: • Сет МакФарлейн, Алекс Борштейн, Сет Грин, Мила Кунис, Майк Генри и другие.-Описание • "Гриффины" (Family Guy) - анимационное ТВ-Шоу, созданное Сетом МакФарлейном (Seth MacFarlane) для телеканала FOX. Как нетрудно догадаться, главными героями шоу является семейка Гриффинов: тупой, но полный сумашедших идей, составляющих львиную долю шуток сериала, отец семейства Питер; его любящя и терпеливая жена Лойс, всеми силами пытающаяся превратить Гриффинов в нормальную семью; их интеллектуально развитый не по годам, вынашивающий идею мирового господства младший сын Стьюи; дочь-ботаник, обречённая из-за этого на одиночество и непонимание как в школе так и дома, Мэг; и 13-ти летний отсталый в развитии лет на 10, сын Крис. Также полноценным членом семьи является пёс Брайн - склонный к меланхолии эстет, спокойно наблюдающий с бокалом вина в лапе над приключениями Питера и остальных членов семьи (и это при всём притом, что остальные собаки в сериале не являются очеловеченными).-ПереводЕгор Ярославцев
Роли озвучивалиКонстантин Погодаев, Анна Тух, Станислав Черсков
ЗвукорежиссерПавел Квентов
ПостерКсения Просветова
Релиз подготовилGater-Реклама: Присутствует.-
Качество: WEB-DLRip 720p
Формат: MKV
Видео: MPEG-4 AVC / ~ 3000 kbps / 1280:720p / 23.976 fps / 16:9
Аудио:
Русский / Dolby Digital 2.0 / 48 kHz / 192 kbps-

- -

MediaInfo


General
Unique ID : 175573000251203082002703295999108823111 (0x8416213E918B0C15B802703CE7DDB847)
Complete name : H:\Мои Документы\Видео\РАЗДАЧИ\Гриффины\Family Guy S16 WEBRip 720p (OMSKBIRD)\Family Guy S16 WEBRip 720p (OMSKBIRD).mkv
Format : Matroska
Format version : Version 2
File size : 465 MiB
Duration : 22 min 14 s
Overall bit rate : 2 922 kb/s
Encoded date : UTC 2017-10-03 17:21:42
Writing application : mkvmerge v4.0.0 ('The Stars were mine') сборка от Jun 6 2010 16:18:42
Writing library : libebml v1.0.0 + libmatroska v1.0.0
Video
ID : 1
Format : AVC
Format/Info : Advanced Video Codec
Format profile : Main@L3.2
Format settings, CABAC : Yes
Format settings, RefFrames : 3 frames
Codec ID : V_MPEG4/ISO/AVC
Duration : 22 min 14 s
Bit rate : 2 672 kb/s
Width : 1 280 pixels
Height : 720 pixels
Display aspect ratio : 16:9
Frame rate mode : Constant
Frame rate : 23.976 (24000/1001) FPS
Standard : PAL
Color space : YUV
Chroma subsampling : 4:2:0
Bit depth : 8 bits
Scan type : Progressive
Bits/(Pixel*Frame) : 0.121
Stream size : 425 MiB (91%)
Language : English
Default : Yes
Forced : No
Color range : Limited
Color primaries : BT.709
Transfer characteristics : BT.709
Matrix coefficients : BT.709
Audio
ID : 2
Format : AC-3
Format/Info : Audio Coding 3
Format settings, Endianness : Big
Codec ID : A_AC3
Duration : 22 min 14 s
Bit rate mode : Constant
Bit rate : 192 kb/s
Channel(s) : 2 channels
Channel positions : Front: L R
Sampling rate : 48.0 kHz
Frame rate : 31.250 FPS (1536 SPF)
Bit depth : 16 bits
Compression mode : Lossy
Stream size : 30.5 MiB (7%)
Service kind : Complete Main
Default : Yes
Forced : No
[freetreker.nl].t146.torrent 
Торрент: Зарегистрирован [ 2018-05-22 07:15 ] · 7A4B7DDECED36BE1451C9FE798D5948D3F1E451D

Скачать .torrent

Скачать

25 KB

Статус: проверено
Скачан: 0 раз
Размер: 9,12 GB
terms.php
Похожие темы:


Последний раз редактировалось: Gater (2018-05-22 07:15), всего редактировалось 19 раз(а)
[Профиль] [ЛС]

Gater ®

Пол: Не указан

Стаж: 1 год 2 месяца

Сообщений: 1375

Создавать темы 09-Окт-2017 15:45 (спустя 5 дней)

[Цитировать]

Добавлена 2-ая серия
[Профиль] [ЛС]

Gater ®

Пол: Не указан

Стаж: 1 год 2 месяца

Сообщений: 1375

Создавать темы 17-Окт-2017 19:08 (спустя 8 дней)

[Цитировать]

Добавлена 3-ая серия
[Профиль] [ЛС]

Gater ®

Пол: Не указан

Стаж: 1 год 2 месяца

Сообщений: 1375

Создавать темы 25-Окт-2017 16:31 (спустя 7 дней)

[Цитировать]

+4
[Профиль] [ЛС]

Gater ®

Пол: Не указан

Стаж: 1 год 2 месяца

Сообщений: 1375

Создавать темы 06-Ноя-2017 14:29 (спустя 11 дней)

[Цитировать]

+5
[Профиль] [ЛС]

Gater ®

Пол: Не указан

Стаж: 1 год 2 месяца

Сообщений: 1375

Создавать темы 14-Ноя-2017 16:08 (спустя 8 дней)

[Цитировать]

+6
[Профиль] [ЛС]

Gater ®

Пол: Не указан

Стаж: 1 год 2 месяца

Сообщений: 1375

Создавать темы 20-Ноя-2017 19:08 (спустя 6 дней)

[Цитировать]

+7
[Профиль] [ЛС]

Gater ®

Пол: Не указан

Стаж: 1 год 2 месяца

Сообщений: 1375

Создавать темы 04-Дек-2017 15:56 (спустя 13 дней)

[Цитировать]

+8
[Профиль] [ЛС]

Gater ®

Пол: Не указан

Стаж: 1 год 2 месяца

Сообщений: 1375

Создавать темы 12-Дек-2017 15:43 (спустя 7 дней)

[Цитировать]

+9
[Профиль] [ЛС]

Gater ®

Пол: Не указан

Стаж: 1 год 2 месяца

Сообщений: 1375

Создавать темы 09-Янв-2018 13:27 (спустя 27 дней)

[Цитировать]

+10
[Профиль] [ЛС]

Gater ®

Пол: Не указан

Стаж: 1 год 2 месяца

Сообщений: 1375

Создавать темы 17-Янв-2018 15:28 (спустя 8 дней)

[Цитировать]

+11
[Профиль] [ЛС]

Gater ®

Пол: Не указан

Стаж: 1 год 2 месяца

Сообщений: 1375

Создавать темы 20-Мар-2018 08:58 (спустя 2 месяца 2 дня)

[Цитировать]

Добавлена 12-ая серия
[Профиль] [ЛС]

Gater ®

Пол: Не указан

Стаж: 1 год 2 месяца

Сообщений: 1375

Создавать темы 26-Мар-2018 19:17 (спустя 6 дней)

[Цитировать]

Добавлена 13 серия
[Профиль] [ЛС]

Gater ®

Пол: Не указан

Стаж: 1 год 2 месяца

Сообщений: 1375

Создавать темы 02-Апр-2018 18:36 (спустя 6 дней)

[Цитировать]

Добавлена 14 серия
[Профиль] [ЛС]

Gater ®

Пол: Не указан

Стаж: 1 год 2 месяца

Сообщений: 1375

Создавать темы 09-Апр-2018 14:08 (спустя 6 дней)

[Цитировать]

Добавлена 15 серия
[Профиль] [ЛС]
Показать сообщения:    
Ответить на тему

Текущее время: 19-Сен 15:27

Часовой пояс: UTC ± 0



Вы не можете начинать темы
Вы не можете отвечать на сообщения
Вы не можете редактировать свои сообщения
Вы не можете удалять свои сообщения
Вы не можете голосовать в опросах
Вы не можете прикреплять файлы к сообщениям
Вы можете скачивать файлы