Люцифер / Lucifer / Сезон 3 / Серии 1-26 (26) (Том Капинос) [2017, фэнтези, драма, HDTVrip 1080p] MVO (OMSKBIRD)

Страницы :  1, 2  След.

Ответить на тему
Статистика раздачи
Размер:  92,72 GB   |    Зарегистрирован:  3 месяца 22 дня   |    Скачан:  0 раз

Полного источника не было: 1 месяц 21 день

 
     
 
 
 
Автор Сообщение

Gater ®

Пол: Не указан

Стаж: 1 год 2 месяца

Сообщений: 1378

Создавать темы 03-Окт-2017 18:41

[Цитировать]

- Люцифер / Lucifer- Год выпуска • 2017
Страна • США
Жанр • фэнтези, драма
Продолжительность • ~44 мин.
Перевод
• Профессиональный (многоголосый, закадровый) "OMSKBIRD records"
-Создатель • Том Капинос
В ролях • Том Эллис, Лорен Джерман, Рэйчел Харрис, Лесли-Энн Брандт, Мэтт Корбой, Скарлет Эстевез, Джонатан Салисбери и др.-Описание • Заскучавший и несчастный повелитель преисподней, Люцифер Морнингстар оставил свой престол и отправился в современный Лос-Анджелес, где основал ночной клуб «Lux». Очаровательный, харизматичный и дьявольски привлекательный Люцифер наслаждается своим отдыхом — вином, женщинами и музыкой — пока красивая поп-звезда не оказывается убитой на пороге его клуба…-Реклама: Присутствует.-
Качество: HDTVrip 1080p
Формат: MKV
Видео: MPEG-4 AVC / ~ 11 Mbps / 1920:1080p / 23.976 fps / 16:9 / ~ 0.220 bit/pixel / High Level 4.0
Аудио:
Русский / Dolby Digital 5.1 / 48 kHz / 384 kbps
English / Dolby Digital 5.1 / 48 kHz / 384 kbps
Субтитры:Нет.-

-

Скриншоты

Над переводом работали

ПереводТатьяна Масаковская
Роли озвучивалиЛенар Гиматдинов, Павел Ярощик, Семен Ващенко, Наталья Ланц, Снежанна Строева, Эльвира Адамова
ЗвукорежиссерПавел Квентов
ПостерКсения Просветова
Релиз подготовилGater
-

MediaInfo


General
Unique ID : 199792165352928993351458611759630933166 (0x964E9246A97B98ED9C71B3501B5A5CAE)
Complete name : H:\Мои Документы\Видео\РАЗДАЧИ\Люцик\Lucifer S03 HDTVrip 1080p (OMSKBIRD)\Lucifer S03E01 HDTVrip 1080p (OMSKBIRD).mkv
Format : Matroska
Format version : Version 2
File size : 3.61 GiB
Duration : 43 min 59 s
Overall bit rate : 11.7 Mb/s
Encoded date : UTC 2017-10-03 18:26:24
Writing application : mkvmerge v4.0.0 ('The Stars were mine') сборка от Jun 6 2010 16:18:42
Writing library : libebml v1.0.0 + libmatroska v1.0.0
Video
ID : 1
Format : AVC
Format/Info : Advanced Video Codec
Format profile : High@L4.1
Format settings, CABAC : Yes
Format settings, RefFrames : 4 frames
Codec ID : V_MPEG4/ISO/AVC
Duration : 43 min 59 s
Bit rate : 10.7 Mb/s
Width : 1 920 pixels
Height : 1 080 pixels
Display aspect ratio : 16:9
Frame rate mode : Constant
Frame rate : 23.976 (24000/1001) FPS
Color space : YUV
Chroma subsampling : 4:2:0
Bit depth : 8 bits
Scan type : Progressive
Bits/(Pixel*Frame) : 0.216
Stream size : 3.30 GiB (91%)
Writing library : x264 core 152 r2851 ba24899
Encoding settings : cabac=1 / ref=4 / deblock=1:-3:-3 / analyse=0x3:0x133 / me=umh / subme=11 / psy=1 / psy_rd=1.00:0.00 / mixed_ref=1 / me_range=32 / chroma_me=1 / trellis=2 / 8x8dct=1 / cqm=0 / deadzone=21,11 / fast_pskip=0 / chroma_qp_offset=-2 / threads=16 / lookahead_threads=1 / sliced_threads=0 / nr=0 / decimate=1 / interlaced=0 / bluray_compat=0 / constrained_intra=0 / bframes=5 / b_pyramid=2 / b_adapt=2 / b_bias=0 / direct=3 / weightb=1 / open_gop=0 / weightp=2 / keyint=250 / keyint_min=23 / scenecut=40 / intra_refresh=0 / rc_lookahead=60 / rc=crf / mbtree=1 / crf=17.0 / qcomp=0.60 / qpmin=0 / qpmax=69 / qpstep=4 / ip_ratio=1.40 / aq=1:1.00
Language : English
Default : No
Forced : No
Color range : Limited
Matrix coefficients : BT.709
Audio #1
ID : 2
Format : AC-3
Format/Info : Audio Coding 3
Format settings, Endianness : Big
Codec ID : A_AC3
Duration : 43 min 59 s
Bit rate mode : Constant
Bit rate : 384 kb/s
Channel(s) : 6 channels
Channel positions : Front: L C R, Side: L R, LFE
Sampling rate : 48.0 kHz
Frame rate : 31.250 FPS (1536 SPF)
Bit depth : 16 bits
Compression mode : Lossy
Stream size : 121 MiB (3%)
Language : Russian
Service kind : Complete Main
Default : Yes
Forced : No
Audio #2
ID : 3
Format : AC-3
Format/Info : Audio Coding 3
Format settings, Endianness : Big
Codec ID : A_AC3
Duration : 43 min 59 s
Bit rate mode : Constant
Bit rate : 384 kb/s
Channel(s) : 6 channels
Channel positions : Front: L C R, Side: L R, LFE
Sampling rate : 48.0 kHz
Frame rate : 31.250 FPS (1536 SPF)
Bit depth : 16 bits
Compression mode : Lossy
Stream size : 121 MiB (3%)
Language : English
Service kind : Complete Main
Default : No
Forced : No
[freetreker.nl].t148.torrent 
Торрент: Зарегистрирован [ 2018-05-31 15:43 ] · 2E2C2D826C477DBAC7ABDFF57BC944E81644C237

Скачать .torrent

Скачать

234 KB

Статус: проверено
Скачан: 0 раз
Размер: 92,72 GB
terms.php
Похожие темы:


Последний раз редактировалось: Gater (2018-05-31 15:43), всего редактировалось 24 раз(а)
[Профиль] [ЛС]

Gater ®

Пол: Не указан

Стаж: 1 год 2 месяца

Сообщений: 1378

Создавать темы 11-Окт-2017 10:01 (спустя 7 дней)

[Цитировать]

+2
[Профиль] [ЛС]

Gater ®

Пол: Не указан

Стаж: 1 год 2 месяца

Сообщений: 1378

Создавать темы 18-Окт-2017 11:16 (спустя 7 дней)

[Цитировать]

+3
[Профиль] [ЛС]

Gater ®

Пол: Не указан

Стаж: 1 год 2 месяца

Сообщений: 1378

Создавать темы 24-Окт-2017 15:29 (спустя 6 дней)

[Цитировать]

+4
[Профиль] [ЛС]

Gater ®

Пол: Не указан

Стаж: 1 год 2 месяца

Сообщений: 1378

Создавать темы 01-Ноя-2017 11:47 (спустя 7 дней)

[Цитировать]

+5
[Профиль] [ЛС]

Gater ®

Пол: Не указан

Стаж: 1 год 2 месяца

Сообщений: 1378

Создавать темы 08-Ноя-2017 11:34 (спустя 6 дней)

[Цитировать]

+6
[Профиль] [ЛС]

Gater ®

Пол: Не указан

Стаж: 1 год 2 месяца

Сообщений: 1378

Создавать темы 15-Ноя-2017 08:16 (спустя 6 дней)

[Цитировать]

+7
[Профиль] [ЛС]

Gater ®

Пол: Не указан

Стаж: 1 год 2 месяца

Сообщений: 1378

Создавать темы 22-Ноя-2017 09:54 (спустя 7 дней)

[Цитировать]

+8
[Профиль] [ЛС]

Gater ®

Пол: Не указан

Стаж: 1 год 2 месяца

Сообщений: 1378

Создавать темы 05-Дек-2017 19:48 (спустя 13 дней)

[Цитировать]

+9
[Профиль] [ЛС]

Gater ®

Пол: Не указан

Стаж: 1 год 2 месяца

Сообщений: 1378

Создавать темы 13-Дек-2017 12:10 (спустя 7 дней)

[Цитировать]

+10
[Профиль] [ЛС]

Gater ®

Пол: Не указан

Стаж: 1 год 2 месяца

Сообщений: 1378

Создавать темы 03-Янв-2018 18:41 (спустя 21 день)

[Цитировать]

+11
[Профиль] [ЛС]

Gater ®

Пол: Не указан

Стаж: 1 год 2 месяца

Сообщений: 1378

Создавать темы 24-Янв-2018 08:32 (спустя 20 дней)

[Цитировать]

+12
[Профиль] [ЛС]

Gater ®

Пол: Не указан

Стаж: 1 год 2 месяца

Сообщений: 1378

Создавать темы 31-Янв-2018 10:06 (спустя 7 дней)

[Цитировать]

+13
[Профиль] [ЛС]

Gater ®

Пол: Не указан

Стаж: 1 год 2 месяца

Сообщений: 1378

Создавать темы 06-Фев-2018 21:59 (спустя 6 дней)

[Цитировать]

+14
[Профиль] [ЛС]

Gater ®

Пол: Не указан

Стаж: 1 год 2 месяца

Сообщений: 1378

Создавать темы 27-Фев-2018 14:25 (спустя 20 дней)

[Цитировать]

+15
[Профиль] [ЛС]
Показать сообщения:    
Ответить на тему

Текущее время: 23-Сен 14:20

Часовой пояс: UTC ± 0



Вы не можете начинать темы
Вы не можете отвечать на сообщения
Вы не можете редактировать свои сообщения
Вы не можете удалять свои сообщения
Вы не можете голосовать в опросах
Вы не можете прикреплять файлы к сообщениям
Вы можете скачивать файлы