Затерянный город Z / The Lost City of Z (2016) BDRip 720p [Paradox&Omskbird]

Ответить на тему
Статистика раздачи
Размер:  5,16 GB   |    Зарегистрирован:  1 год 5 месяцев   |    Скачан:  0 раз

Полного источника не было: 1 год 1 месяц

 
     
 
 
 
Автор Сообщение

studio_paradox ®

Пол: Мужской

Стаж: 1 год 5 месяцев

Сообщений: 15

Создавать темы 11-Июл-2017 16:08

[Цитировать]

Затерянный город Z / The Lost City of Z -Год выпуска: 2016
Жанр: Боевик, драма, приключения, биография, история
Страна: США, Keep Your Head, MadRiver Pictures, MICA Entertainment
Перевод: Многоголосый закадровый [Студия "Paradox" & Omskbird]
Продолжительность: 02:21:47-Режиссер: Джеймс Грэй
В ролях: Чарли Ханнэм, Сиенна Миллер, Роберт Паттинсон, Том Холланд (II), Эдвард Эшли, Энгус Макфадьен, Иен МакДермид, Клайв Фрэнсис, Педро Коэльо, Мэтью Сандерлэнд-Описание: Эльдорадо, таинственная столица инков, загадочный Город Z… Вымысел или реальность? В 1925 году экспедиция полковника Фоссета, члена Королевского Географического общества, бесследно исчезла в джунглях Амазонии в поисках Города Z…- -Качество: BDRip 720p
Видео: MPEG4-AVC, 1280x536, 23.976 fps, 5015 kbps
Аудио: AC3, 2 ch, 192 kbps

Над озвучкой работали

[Студия "Paradox" & Omskbird records]
• Перевод: Юлия Мейер
• Роли озвучивали: Алексей Гнеушев, Павел Ярощик, Марина Гассан, Денис Строев
• Звукорежиссер: Павел Квентов
Присутствует реклама!

MediaInfo

Format : Matroska
Format version : Version 4 / Version 2
File size : 5.16 GiB
Duration : 2 h 21 min
Overall bit rate : 5 209 kb/s
Encoded date : UTC 2017-07-11 15:38:30
Writing application : mkvmerge v9.3.1 ('Mask Machine') 64bit
Writing library : libebml v1.3.4 + libmatroska v1.4.5
Video
ID : 1
Format : AVC
Format/Info : Advanced Video Codec
Format profile : [email protected]
Format settings, CABAC : Yes
Format settings, ReFrames : 3 frames
Codec ID : V_MPEG4/ISO/AVC
Duration : 2 h 21 min
Bit rate : 5 015 kb/s
Width : 1 280 pixels
Height : 536 pixels
Display aspect ratio : 2.40:1
Frame rate mode : Constant
Frame rate : 23.976 (24000/1001) FPS
Standard : NTSC
Color space : YUV
Chroma subsampling : 4:2:0
Bit depth : 8 bits
Scan type : Progressive
Bits/(Pixel*Frame) : 0.305
Stream size : 4.97 GiB (96%)
Language : English
Default : Yes
Forced : No
Color range : Limited
Color primaries : BT.601 NTSC
Transfer characteristics : BT.601
Matrix coefficients : BT.601
Audio
ID : 2
Format : AC-3
Format/Info : Audio Coding 3
Mode extension : CM (complete main)
Format settings, Endianness : Big
Codec ID : A_AC3
Duration : 2 h 21 min
Bit rate mode : Constant
Bit rate : 192 kb/s
Channel(s) : 2 channels
Channel positions : Front: L R
Sampling rate : 48.0 kHz
Frame rate : 31.250 FPS (1536 spf)
Compression mode : Lossy
Stream size : 195 MiB (4%)
Default : Yes
Forced : No

Скриншоты


[freetreker.nl].t15.torrent 
 ЗОЛОТАЯ РАЗДАЧА! СКАЧАННОЕ НЕ ЗАСЧИТЫВАЕТСЯ! 
Торрент: Зарегистрирован [ 2017-07-11 16:08 ] · E7415DC8601FE890E446DC608695EFC0C0604940

Скачать .torrent

Скачать

13 KB

Статус: проверено
Скачан: 0 раз
Размер: 5,16 GB
terms.php
Похожие темы:
[Профиль] [ЛС]
Показать сообщения:    
Ответить на тему

Текущее время: 12-Дек 07:00

Часовой пояс: UTC ± 0



Вы не можете начинать темы
Вы не можете отвечать на сообщения
Вы не можете редактировать свои сообщения
Вы не можете удалять свои сообщения
Вы не можете голосовать в опросах
Вы не можете прикреплять файлы к сообщениям
Вы можете скачивать файлы