Охотник за разумом / Mindhunter / Сезон 1 / Серии 1-10 (10) (Дэвид Финчер) [2017, США, триллер, драма, криминал, WEBRip 720p] MVO (OMSKBIRD)

Ответить на тему
Статистика раздачи
Размер:  5,87 GB   |    Зарегистрирован:  11 месяцев 5 дней   |    Скачан:  1 раз

Полного источника не было: 10 месяцев 3 дня

 
     
 
 
 
Автор Сообщение

Gater ®

Пол: Не указан

Стаж: 1 год 2 месяца

Сообщений: 1378

Создавать темы 14-Окт-2017 21:45

[Цитировать]

-Охотник за разумом / Mindhunter- Год выпуска • 2017
Страна • США
Жанр • драма, криминал, триллер
Продолжительность • ~60 мин.
Перевод
• Профессиональный (многоголосый, закадровый) "OMSKBIRD records"
-Создатель • Дэвид Финчер, Эндрю Дуглас, Азиф Кападиа
В ролях • Джонатан Грофф, Холт МакКэллани, Анна Торв, Коттер Смит, Сонни Валиченти, Ханна Гросс, Камерон Бриттон, Алекс Морф, Стэйси Рока, Джо Таттл и др.-Описание • Действие сериала происходит в 1979 году. В центре сюжета два агента ФБР, которые опрашивают находящихся в заключении серийных убийц с целью понимания их образа мыслей, а также раскрытия текущих преступлений.-Реклама: Присутствует.-
Качество: Netflix WEBRip 720p
Формат: MKV
Видео: MPEG-4 AVC / ~ 1500 kbps / 1280х720p / 23.976 fps / 16:9
Аудио:
Русский / Dolby Digital 2.0 / 48 kHz / 192 kbps-

- -

Над переводом работали

ПереводНиколай Исаков, Татьяна Масаковская, Оксана Графутко
Роли озвучивалиПавел Ярощик, Семен Ващенко, Александр Дасевич, Екатерина Кабашова
ЗвукорежиссерGater
ПостерКсения Просветова
Релиз подготовилGater

MediaInfo


General
Unique ID : 232052842677066643034127955829655482374 (0xAE93C078888F5922814772541EB63006)
Complete name : H:\Мои Документы\Видео\РАЗДАЧИ\ОХОТНИК\Mindhunter S01 WEBRip 720p (OMSKBIRD)\Mindhunter S01E01 WEBRip 720p (OMSKBIRD).mkv
Format : Matroska
Format version : Version 2
File size : 714 MiB
Duration : 1 h 0 min
Overall bit rate : 1 648 kb/s
Movie name : mindhunter.s01e01.1080p.fcc
Encoded date : UTC 2017-10-14 21:01:33
Writing application : mkvmerge v4.0.0 ('The Stars were mine') сборка от Jun 6 2010 16:18:42
Writing library : libebml v1.0.0 + libmatroska v1.0.0
Video
ID : 1
Format : AVC
Format/Info : Advanced Video Codec
Format profile : Baseline@L3.2
Format settings, CABAC : No
Format settings, RefFrames : 3 frames
Codec ID : V_MPEG4/ISO/AVC
Duration : 1 h 0 min
Bit rate : 1 423 kb/s
Width : 1 280 pixels
Height : 720 pixels
Display aspect ratio : 16:9
Frame rate mode : Constant
Frame rate : 23.976 (24000/1001) FPS
Standard : NTSC
Color space : YUV
Chroma subsampling : 4:2:0
Bit depth : 8 bits
Scan type : Progressive
Bits/(Pixel*Frame) : 0.064
Stream size : 616 MiB (86%)
Language : English
Default : Yes
Forced : No
Color range : Limited
Color primaries : BT.709
Transfer characteristics : BT.709
Matrix coefficients : BT.709
Audio
ID : 2
Format : AC-3
Format/Info : Audio Coding 3
Format settings, Endianness : Big
Codec ID : A_AC3
Duration : 1 h 0 min
Bit rate mode : Constant
Bit rate : 192 kb/s
Channel(s) : 2 channels
Channel positions : Front: L R
Sampling rate : 48.0 kHz
Frame rate : 31.250 FPS (1536 SPF)
Bit depth : 16 bits
Compression mode : Lossy
Stream size : 83.2 MiB (12%)
Service kind : Complete Main
Default : Yes
Forced : No
[freetreker.nl].t163.torrent 
 ЗОЛОТАЯ РАЗДАЧА! СКАЧАННОЕ НЕ ЗАСЧИТЫВАЕТСЯ! 
Торрент: Зарегистрирован [ 2017-10-17 19:09 ] · F97FF59D97A7966EC3FAD2CFD4E9BA29B527D9D0

Скачать .torrent

Скачать

16 KB

Статус: проверено
Скачан: 1 раз
Размер: 5,87 GB
terms.php
Похожие темы:


Последний раз редактировалось: Gater (2017-10-17 19:09), всего редактировалось 2 раз(а)
[Профиль] [ЛС]

Gater ®

Пол: Не указан

Стаж: 1 год 2 месяца

Сообщений: 1378

Создавать темы 15-Окт-2017 21:16 (спустя 23 часа)

[Цитировать]

+4-6
[Профиль] [ЛС]

Gater ®

Пол: Не указан

Стаж: 1 год 2 месяца

Сообщений: 1378

Создавать темы 16-Окт-2017 19:48 (спустя 22 часа)

[Цитировать]

+7-8
[Профиль] [ЛС]

Gater ®

Пол: Не указан

Стаж: 1 год 2 месяца

Сообщений: 1378

Создавать темы 17-Окт-2017 19:09 (спустя 23 часа)

[Цитировать]

+9-10
Сезон полностью.
[Профиль] [ЛС]
Показать сообщения:    
Ответить на тему

Текущее время: 23-Сен 14:07

Часовой пояс: UTC ± 0



Вы не можете начинать темы
Вы не можете отвечать на сообщения
Вы не можете редактировать свои сообщения
Вы не можете удалять свои сообщения
Вы не можете голосовать в опросах
Вы не можете прикреплять файлы к сообщениям
Вы можете скачивать файлы