Дитя джунглей / Vanamagan (А.Л.Виджай) [2017, Индия, драма, мелодрама, приключения, HDTVRip-AVC] (DVO : Khushi Khiladi)

Ответить на тему
Статистика раздачи
Размер:  7,67 GB   |    Зарегистрирован:  6 месяцев 2 дня   |    Скачан:  3 раза

Полного источника не было: 3 дня

 
     
 
 
 
Автор Сообщение

admin ®

Пол: Мужской

Стаж: 6 лет 9 месяцев

Сообщений: 27

Создавать темы 23-Окт-2017 12:24

[Цитировать]

Дитя джунглей / Vanamagan Страна: Индия
Жанр: драма, мелодрама, приключения
Год выпуска: 2017
Продолжительность: 02:20:00
Перевод: Любительский (двухголосый закадровый) - Khushi Khiladi
Режиссер: А.Л.Виджай
В ролях: Тхамби Рамаиах, Джаям Рави, Саешаа Саигал, Сринивасан
Описание: Главная героиня фильма - девушка по имени Кавья. Однажды она вместе с друзьями отправляется отмечать Новый год на Андаманские острова. Шумная компания молодых людей привлекает к себе внимание полиции, после чего их арестовывают. Сразу же после этого инцидента Кавья случайно сбивает на дороге местного жителя по имени Джара. В результате ДТП парень получает сотрясение головного мозга, и, осознав всю серьёзность ситуации, главная героиня решает оплатить ему лечение в хорошей больнице в Ченнаи. Когда всё это случилось, никто и предположить не мог, что Кавья и Джара влюбятся друг в друга…
Качество видео: HDTVRip-AVC
Формат видео: MKV
Видео: MPEG-4 AVC, 1920х1080, 25.000 FPS, 7 607Кбит/с
Аудио: АС3, 48.0 kHz, 2.0 ch, 192 Кбит/с

MediaInfo

General
Unique ID : 254865966125596304636887143688296555939 (0xBFBD664BF741F3E9B3EDED57CC1565A3)
Complete name : D:\Down\kk\Vanamagan.2017.Rus.1080p.WEBHDRip.KK.mkv
Format : Matroska
Format version : Version 4 / Version 2
File size : 7.67 GiB
Duration : 2 h 17 min
Overall bit rate : 7 957 kb/s
Encoded date : UTC 2017-10-23 04:14:00
Writing application : mkvmerge v6.9.1 ('Blue Panther') 32bit built on Apr 18 2014 18:15:44
Writing library : libebml v1.3.0 + libmatroska v1.4.1
Video
ID : 1
Format : MPEG-4 Visual
Format profile : Advanced Simple@L1
Format settings, BVOP : No
Format settings, QPel : No
Format settings, GMC : No warppoints
Format settings, Matrix : Default (H.263)
Codec ID : V_MS/VFW/FOURCC / FMP4
Duration : 2 h 17 min
Bit rate : 7 607 kb/s
Width : 1 920 pixels
Height : 1 080 pixels
Display aspect ratio : 16:9
Frame rate mode : Constant
Frame rate : 23.976 (24000/1001) FPS
Color space : YUV
Chroma subsampling : 4:2:0
Bit depth : 8 bits
Scan type : Progressive
Compression mode : Lossy
Bits/(Pixel*Frame) : 0.153
Stream size : 7.33 GiB (96%)
Writing library : Lavc55.18.102
Default : Yes
Forced : No
Audio
ID : 2
Format : AC-3
Format/Info : Audio Coding 3
Format settings, Endianness : Big
Codec ID : A_AC3
Duration : 2 h 17 min
Bit rate mode : Constant
Bit rate : 192 kb/s
Channel(s) : 2 channels
Channel positions : Front: L R
Sampling rate : 48.0 kHz
Frame rate : 31.250 FPS (1536 SPF)
Bit depth : 16 bits
Compression mode : Lossy
Stream size : 189 MiB (2%)

Скриншот c названием фильма

Скриншоты


[freetreker.nl].t165.torrent 
 ЗОЛОТАЯ РАЗДАЧА! СКАЧАННОЕ НЕ ЗАСЧИТЫВАЕТСЯ! 
Торрент: Зарегистрирован [ 2017-10-23 19:48 ] · 8BC88CDFAA4E679988B8F493C49D02958839E292

Скачать .torrent

Скачать

20 KB

Статус: проверено
Скачан: 3 раз
Размер: 7,67 GB
terms.php
Похожие темы:


Последний раз редактировалось: admin (2017-10-23 19:48), всего редактировалось 1 раз
[Профиль] [ЛС]

admin ®

Пол: Мужской

Стаж: 6 лет 9 месяцев

Сообщений: 27

Создавать темы 23-Окт-2017 19:34 (спустя 7 часов)

[Цитировать]

Приятного просмотра
[Профиль] [ЛС]
Показать сообщения:    
Ответить на тему

Текущее время: 26-Апр 19:21

Часовой пояс: UTC ± 0



Вы не можете начинать темы
Вы не можете отвечать на сообщения
Вы не можете редактировать свои сообщения
Вы не можете удалять свои сообщения
Вы не можете голосовать в опросах
Вы не можете прикреплять файлы к сообщениям
Вы можете скачивать файлы