Я король и я министр / Nene Raju Nene Mantri (Теджа) [2017, Индия, триллер, криминал, WEBRip 720p] (DVO : Khushi Khiladi)

Ответить на тему
Статистика раздачи
Размер:  3,35 GB   |    Зарегистрирован:  1 год 1 месяц   |    Скачан:  3 раза

Полного источника не было: 7 месяцев 2 дня

 
     
 
 
 
Автор Сообщение

admin ®

Пол: Мужской

Стаж: 7 лет 5 месяцев

Сообщений: 28

Создавать темы 23-Окт-2017 16:48

[Цитировать]

Я король и я министр / Nene Raju Nene Mantri
Страна: Индия
Жанр: триллер, криминал
Год выпуска: 2017
Продолжительность: 02:30:44
Перевод: Любительский (двухголосый закадровый) - Khushi Khiladi
Режиссер: Теджа
В ролях: Вену Тиллу, Каджал Аггарвал, Аджай, Аннапурна Амма, Таникелла Бхарани, Рана Даггубати, Рагху Кумар Каруманчи, Навдип, Кришна Мурали Посани, Джая Пракаш Редди
Описание: Влиятельный политический деятель по имени Джогендра начал своё восхождение на Олимп власти с самой низшей ступени. Он жил в маленьком селе, и считался рядовым деревенским жителем. Ни во что не вмешиваясь, герой все же встретился с серьезными неприятностями. Однажды его жена оказалась в опасной ситуации, в общем, с ней приключилась трагедия. Осознав несовершенство окружающего мира, опечаленный супруг принял решение защищать свой дом и близких людей при помощи мощного оружия — высокого государственного поста...
Качество видео: WEBRip 720p
Формат видео: MKV
Видео: MPEG-4 AVC, 1280х544, 25.000 FPS, 3 000 Кбит/с
Аудио: AC-3, 48.0 kHz, 2.0 ch, 192 Кбит/с

MediaInfo

General
Unique ID : 231751466768764625171949242965032052070 (0xAE59B57DC8B95C259BA3A79AD8B22566)
Complete name : D:\Down\kk\Nene.Raju.Nene.Mantri.2017.720p.WEBRip.mkv
Format : Matroska
Format version : Version 2
File size : 3.35 GiB
Duration : 2 h 30 min
Overall bit rate : 3 183 kb/s
Encoded date : UTC 2017-11-02 00:29:56
Writing application : mkvmerge v7.8.0 ('River Man') 32bit built on Apr 3 2015 12:11:22
Writing library : libebml v1.3.1 + libmatroska v1.4.2
Video
ID : 1
Format : AVC
Format/Info : Advanced Video Codec
Format profile : [email protected]
Format settings : CABAC / 4 Ref Frames
Format settings, CABAC : Yes
Format settings, RefFrames : 4 frames
Codec ID : V_MPEG4/ISO/AVC
Duration : 2 h 30 min
Bit rate : 3 000 kb/s
Width : 1 280 pixels
Height : 544 pixels
Display aspect ratio : 2.35:1
Frame rate mode : Constant
Frame rate : 23.976 (24000/1001) FPS
Color space : YUV
Chroma subsampling : 4:2:0
Bit depth : 8 bits
Scan type : Progressive
Bits/(Pixel*Frame) : 0.180
Stream size : 3.08 GiB (92%)
Writing library : x264 core 146 r2538 121396c
Encoding settings : cabac=1 / ref=3 / deblock=1:0:0 / analyse=0x3:0x113 / me=hex / subme=7 / psy=1 / psy_rd=1.00:0.00 / mixed_ref=1 / me_range=16 / chroma_me=1 / trellis=1 / 8x8dct=1 / cqm=0 / deadzone=21,11 / fast_pskip=1 / chroma_qp_offset=-2 / threads=6 / lookahead_threads=1 / sliced_threads=0 / nr=0 / decimate=1 / interlaced=0 / bluray_compat=0 / constrained_intra=0 / bframes=3 / b_pyramid=2 / b_adapt=1 / b_bias=0 / direct=1 / weightb=1 / open_gop=0 / weightp=2 / keyint=250 / keyint_min=23 / scenecut=40 / intra_refresh=0 / rc_lookahead=40 / rc=abr / mbtree=1 / bitrate=3000 / ratetol=1.0 / qcomp=0.60 / qpmin=0 / qpmax=69 / qpstep=4 / ip_ratio=1.40 / aq=1:1.00
Default : Yes
Forced : No
Audio
ID : 2
Format : AC-3
Format/Info : Audio Coding 3
Format settings, Endianness : Big
Codec ID : A_AC3
Duration : 2 h 30 min
Bit rate mode : Constant
Bit rate : 192 kb/s
Channel(s) : 2 channels
Channel positions : Front: L R
Sampling rate : 48.0 kHz
Frame rate : 31.250 FPS (1536 SPF)
Bit depth : 16 bits
Compression mode : Lossy
Stream size : 207 MiB (6%)
Service kind : Complete Main
Default : Yes
Forced : No

Скриншоты


[freetreker.nl].t166.torrent 
 ЗОЛОТАЯ РАЗДАЧА! СКАЧАННОЕ НЕ ЗАСЧИТЫВАЕТСЯ! 
Торрент: Зарегистрирован [ 2017-11-02 06:25 ] · 6E684986A8112310FE916B85653C3C4ED9A5C9AE

Скачать .torrent

Скачать

18 KB

Статус: проверено
Скачан: 3 раз
Размер: 3,35 GB
terms.php
Похожие темы:


Последний раз редактировалось: admin (2017-11-10 18:24), всего редактировалось 1 раз
[Профиль] [ЛС]

admin ®

Пол: Мужской

Стаж: 7 лет 5 месяцев

Сообщений: 28

Создавать темы 02-Ноя-2017 06:28 (спустя 9 дней)

[Цитировать]

Замена звуковой дорожки
[Профиль] [ЛС]

al1ksandr

Пол: Не указан

Стаж: 1 год 2 месяца

Сообщений: 1

Создавать темы 06-Ноя-2017 08:27 (спустя 4 дня)

[Цитировать]

Пожалуйста помогите скачать фильм.
[Профиль] [ЛС]
Показать сообщения:    
Ответить на тему

Текущее время: 19-Дек 03:07

Часовой пояс: UTC ± 0



Вы не можете начинать темы
Вы не можете отвечать на сообщения
Вы не можете редактировать свои сообщения
Вы не можете удалять свои сообщения
Вы не можете голосовать в опросах
Вы не можете прикреплять файлы к сообщениям
Вы можете скачивать файлы