Ветреная река / Wind River (Тейлор Шеридан) [2017, США, Acacia Filmed Entertainment, Film 44, Ingenious Media, Savvy Media Holdings, Star Thrower Enter, Боевик, триллер, криминал, детектив, BDRip] (Dub) [HEVC] 10bit

Ответить на тему
Статистика раздачи
Размер:  4,28 GB   |    Зарегистрирован:  8 месяцев 3 дня   |    Скачан:  0 раз

Полного источника не было: Никогда

 
     
 
 
 
Автор Сообщение

HANNIBAL ®

Пол: Не указан

Стаж: 8 месяцев 14 дней

Сообщений: 1

Создавать темы 15-Ноя-2017 20:14

[Цитировать]

Ветреная река / Wind River
Страна: США, Acacia Filmed Entertainment, Film 44, Ingenious Media, Savvy Media Holdings, Star Thrower Enter
Жанр: Боевик, триллер, криминал, детектив
Год выпуска: 2017
Продолжительность: 01:46:47
Перевод: Профессиональный (дублированный)
Cубтитры: нет
Оригинальная аудиодорожка: нет
Режиссер: Тейлор Шеридан
В ролях: Джереми Реннер, Элизабет Олсен, Джон Бернтал, Келси Чоу, Джулия Джонс, Тео Брионес, Апесанахкват, Грэм Грин, Танту Кардинал, Эрик Ланж, Джил Бирмингем
Описание: Край, где водятся волки и пумы, а морозные ослепительно-солнечные дни сменяются метелью, где индейцы живут в резервации «Ветреная река», охотник, идущий по следу пумы на снегоходе, натыкается на труп девушки. В край, где нет подкрепления - каждый сам за себя, приезжает молодая сотрудница ФБР и просит охотника помочь найти убийцу. Сюжет фильма основан на реальных событиях.
Сэмпл: http://sendfile.su/1377749
Качество видео: BDRip
Формат видео: MKV
Видео: 1920x800, 23.976 кадр/сек, 5352 Кбит/сек [Main 10@L4@Main]
Аудио: 384 Кбит/сек, 6 канала(ов), 48,0 КГц

MediaInfo

General
Unique ID : 224594372716591984771920109003332257964 (0xA8F74D82B3399072BA0AF86CE26E08AC)
Complete name : G:\[HEVC]\Wind River (2017) BDRip 1080p [HEVC] 10bit.mkv
Format : Matroska
Format version : Version 4 / Version 2
File size : 4.28 GiB
Duration : 1 h 46 min
Overall bit rate : 5 743 kb/s
Movie name : 00031
Encoded date : UTC 2017-11-12 07:42:58
Writing application : mkvmerge v9.5.0 ('Quiet Fire') 64bit
Writing library : libebml v1.3.4 + libmatroska v1.4.5
Cover : Yes
Attachments : cover.jpg
Video
ID : 1
Format : HEVC
Format/Info : High Efficiency Video Coding
Format profile : Main 10@L4@Main
Codec ID : V_MPEGH/ISO/HEVC
Duration : 1 h 46 min
Bit rate : 5 352 kb/s
Width : 1 920 pixels
Height : 800 pixels
Display aspect ratio : 2.40:1
Frame rate mode : Constant
Frame rate : 23.976 (24000/1001) FPS
Color space : YUV
Chroma subsampling : 4:2:0
Bit depth : 10 bits
Bits/(Pixel*Frame) : 0.145
Stream size : 3.99 GiB (93%)
Default : Yes
Forced : No
Color range : Limited
Color primaries : BT.709
Transfer characteristics : BT.709
Matrix coefficients : BT.709
Audio
ID : 2
Format : AC-3
Format/Info : Audio Coding 3
Codec ID : A_AC3
Duration : 1 h 46 min
Bit rate mode : Constant
Bit rate : 384 kb/s
Channel(s) : 6 channels
Channel positions : Front: L C R, Side: L R, LFE
Sampling rate : 48.0 kHz
Frame rate : 31.250 FPS (1536 SPF)
Bit depth : 16 bits
Compression mode : Lossy
Stream size : 293 MiB (7%)
Language : Russian
Service kind : Complete Main
Default : Yes
Forced : No

Скриншот c названием фильма

Скриншоты

[freetreker.nl].t178.torrent 
Торрент: Зарегистрирован [ 2017-11-15 20:14 ] · FD28A8F0D72C4AF0559C006544BBF590AD8D8E4C

Скачать .torrent

Скачать

11 KB

Статус: проверено
Скачан: 0 раз
Размер: 4,28 GB
terms.php
Похожие темы:
[Профиль] [ЛС]
Показать сообщения:    
Ответить на тему

Текущее время: 19-Июл 19:37

Часовой пояс: UTC ± 0



Вы не можете начинать темы
Вы не можете отвечать на сообщения
Вы не можете редактировать свои сообщения
Вы не можете удалять свои сообщения
Вы не можете голосовать в опросах
Вы не можете прикреплять файлы к сообщениям
Вы можете скачивать файлы