Совет да любовь / Mubarakan (Анис Базми) [2017, Индия, мелодрама, комедия, семейный, BluRay 1080p] (DVO)

Ответить на тему
Статистика раздачи
Размер:  3,71 GB   |    Зарегистрирован:  1 год   |    Скачан:  7 раз

Полного источника не было: 8 месяцев

 
     
 
 
 
Автор Сообщение

admin ®

Пол: Мужской

Стаж: 7 лет 5 месяцев

Сообщений: 28

Создавать темы 19-Ноя-2017 10:37

[Цитировать]

Совет да любовь / Mubarakan
Страна: Индия
Жанр: мелодрама, комедия, семейный
Год выпуска: 2017
Продолжительность: 02:36
Перевод: Любительский (двухголосый закадровый)
Режиссер: Анис Базми
В ролях: Анил Капур, Арджун Капур, Илеана, Атья Шетти, Неха Шарма, Винит Кумар Сингх, Паван Малхотра, Рэтна Патхак, Каран Кундра, Anil Mange
Описание: Каран и Чаран — близнецы, которые по воле судьбы оказываются друг другу двоюродными братьями. Один вырос в Чандигархе, другой в Лондоне, и оба настолько разные, насколько только могут быть разными братья. Самое смешное начинается тогда, когда их семьи принимаются искать им невест, не зная, что у обоих уже есть подруги. Сможет ли хитроумный дядюшка Картар помочь братьям выбраться из этой неразберихи или запутает все еще больше?
Доп. информация: Специально для группы: Khushi Khiladi По заказу: Шодовара Исматова
Качество видео: BluRay 1080p
Формат видео: MKV
Видео: MPEG-4 AVC, 1920х800, 24.000 FPS, 3 227Кбит/с
Аудио: АС3, 48.0 kHz, 2.0 ch, 192 Кбит/с

MediaInfo

General
Unique ID : 207829669652426168685809845789190768833 (0x9C5A89D5573B43B4AAE2D80D6523C8C1)
Complete name : D:\donwload\kk\Mubarakan.BluRay.1080p.x264.mkv
Format : Matroska
Format version : Version 4 / Version 2
File size : 3.71 GiB
Duration : 2 h 35 min
Overall bit rate : 3 421 kb/s
Movie name : [email protected] Telly
Encoded date : UTC 2017-11-16 16:38:33
Writing application : mkvmerge v15.0.0 ('Duel with the Devil') 32-bit
Writing library : libebml v1.3.5 + libmatroska v1.4.5
Video
ID : 1
Format : HEVC
Format/Info : High Efficiency Video Coding
Format profile : [email protected]@Main
Codec ID : V_MPEGH/ISO/HEVC
Duration : 2 h 35 min
Bit rate : 3 227 kb/s
Width : 1 920 pixels
Height : 800 pixels
Display aspect ratio : 2.40:1
Frame rate mode : Constant
Frame rate : 24.000 FPS
Color space : YUV
Chroma subsampling : 4:2:0
Bit depth : 8 bits
Bits/(Pixel*Frame) : 0.088
Stream size : 3.50 GiB (94%)
Title : [email protected] Telly
Writing library : x265 2.2+2-998d4520d1cf:[Windows][GCC 6.2.0][64 bit] 8bit+10bit+12bit
Encoding settings : cpuid=1049087 / frame-threads=5 / numa-pools=20 / wpp / no-pmode / no-pme / no-psnr / no-ssim / log-level=2 / input-csp=1 / input-res=1920x800 / interlace=0 / total-frames=223438 / level-idc=0 / high-tier=1 / uhd-bd=0 / ref=3 / no-allow-non-conformance / no-repeat-headers / annexb / no-aud / no-hrd / info / hash=0 / no-temporal-layers / open-gop / min-keyint=24 / keyint=250 / bframes=4 / b-adapt=2 / b-pyramid / bframe-bias=0 / rc-lookahead=20 / lookahead-slices=5 / scenecut=40 / no-intra-refresh / ctu=64 / min-cu-size=8 / no-rect / no-amp / max-tu-size=32 / tu-inter-depth=1 / tu-intra-depth=1 / limit-tu=0 / rdoq-level=0 / signhide / no-tskip / nr-intra=0 / nr-inter=0 / no-constrained-intra / strong-intra-smoothing / max-merge=2 / limit-refs=3 / no-limit-modes / me=1 / subme=2 / merange=57 / temporal-mvp / weightp / no-weightb / no-analyze-src-pics / deblock=0:0 / sao / no-sao-non-deblock / rd=3 / no-early-skip / rskip / no-fast-intra / no-tskip-fast / no-cu-lossless / no-b-intra / rdpenalty=0 / psy-rd=2.00 / psy-rdoq=0.00 / no-rd-refine / analysis-mode=0 / no-lossless / cbqpoffs=0 / crqpoffs=0 / rc=abr / bitrate=3226 / qcomp=0.60 / qpstep=4 / stats-write=0 / stats-read=2 / cplxblur=20.0 / qblur=0.5 / ipratio=1.40 / pbratio=1.30 / aq-mode=1 / aq-strength=1.00 / cutree / zone-count=0 / no-strict-cbr / qg-size=32 / no-rc-grain / qpmax=69 / qpmin=0 / sar=1 / overscan=0 / videoformat=5 / range=0 / colorprim=2 / transfer=2 / colormatrix=2 / chromaloc=0 / display-window=0 / max-cll=0,0 / min-luma=0 / max-luma=255 / log2-max-poc-lsb=8 / vui-timing-info / vui-hrd-info / slices=1 / opt-qp-pps / opt-ref-list-length-pps / no-multi-pass-opt-rps / scenecut-bias=0.05
Default : Yes
Forced : No
Audio
ID : 2
Format : AC-3
Format/Info : Audio Coding 3
Format settings, Endianness : Big
Codec ID : A_AC3
Duration : 2 h 35 min
Bit rate mode : Constant
Bit rate : 192 kb/s
Channel(s) : 2 channels
Channel positions : Front: L R
Sampling rate : 48.0 kHz
Frame rate : 31.250 FPS (1536 SPF)
Bit depth : 16 bits
Compression mode : Lossy
Stream size : 213 MiB (6%)
Language : Russian
Service kind : Complete Main
Default : Yes
Forced : No

Скриншот c названием фильма

Скриншоты


[freetreker.nl].t181.torrent 
 ЗОЛОТАЯ РАЗДАЧА! СКАЧАННОЕ НЕ ЗАСЧИТЫВАЕТСЯ! 
Торрент: Зарегистрирован [ 2017-11-19 10:50 ] · 386EC77DE311B14B01484BC3B40431728244DD7F

Скачать .torrent

Скачать

20 KB

Статус: проверено
Скачан: 7 раз
Размер: 3,71 GB
terms.php
Похожие темы:
[Профиль] [ЛС]
Показать сообщения:    
Ответить на тему

Текущее время: 13-Дек 22:00

Часовой пояс: UTC ± 0



Вы не можете начинать темы
Вы не можете отвечать на сообщения
Вы не можете редактировать свои сообщения
Вы не можете удалять свои сообщения
Вы не можете голосовать в опросах
Вы не можете прикреплять файлы к сообщениям
Вы можете скачивать файлы