Совет да любовь / Mubarakan (Анис Базми) [2017, Индия, мелодрама, комедия, семейный, BDRip] (DVO)

Ответить на тему
Статистика раздачи
Размер:  1,7 GB   |    Зарегистрирован:  7 месяцев 2 дня   |    Скачан:  11 раз
Сидов:  1  [  0 KB/s  ]   Подробная статистика пиров
 
     
 
 
 
Автор Сообщение

admin ®

Пол: Мужской

Стаж: 6 лет 11 месяцев

Сообщений: 28

Создавать темы 19-Ноя-2017 10:49

[Цитировать]

Совет да любовь / Mubarakan
Страна: Индия
Жанр: мелодрама, комедия, семейный
Год выпуска: 2017
Продолжительность: 02:36
Перевод: Любительский (двухголосый закадровый)
Режиссер: Анис Базми
В ролях: Анил Капур, Арджун Капур, Илеана, Атья Шетти, Неха Шарма, Винит Кумар Сингх, Паван Малхотра, Рэтна Патхак, Каран Кундра, Anil Mange
Описание: Каран и Чаран — близнецы, которые по воле судьбы оказываются друг другу двоюродными братьями. Один вырос в Чандигархе, другой в Лондоне, и оба настолько разные, насколько только могут быть разными братья. Самое смешное начинается тогда, когда их семьи принимаются искать им невест, не зная, что у обоих уже есть подруги. Сможет ли хитроумный дядюшка Картар помочь братьям выбраться из этой неразберихи или запутает все еще больше?
Доп. информация: Специально для группы: Khushi Khiladi По заказу: Шодовара Исматова
Качество видео: BDRip
Формат видео: XViD
Видео: xvid, 720х304, 24.000 FPS, 1 371 Кбит/с
Аудио: АС3, 48.0 kHz, 2.0 ch, 192 Кбит/с

MediaInfo

General
Unique ID : 245768622826264591501371597647211951582 (0xB8E550A4713F9083BA116885038475DE)
Complete name : D:\donwload\kk\Mubarakan.2017.BDRip.XViD.mkv
Format : Matroska
Format version : Version 4 / Version 2
File size : 1.70 GiB
Duration : 2 h 35 min
Overall bit rate : 1 565 kb/s
Encoded date : UTC 2017-11-15 20:20:52
Writing application : mkvmerge v6.2.0 ('Promised Land') built on Apr 28 2013 12:22:01
Writing library : libebml v1.3.0 + libmatroska v1.4.0
Video
ID : 1
Format : AVC
Format/Info : Advanced Video Codec
Format profile : High@L4.1
Format settings : CABAC / 4 Ref Frames
Format settings, CABAC : Yes
Format settings, RefFrames : 4 frames
Codec ID : V_MPEG4/ISO/AVC
Duration : 2 h 35 min
Bit rate : 1 371 kb/s
Width : 720 pixels
Height : 304 pixels
Display aspect ratio : 2.35:1
Frame rate mode : Constant
Frame rate : 24.000 FPS
Color space : YUV
Chroma subsampling : 4:2:0
Bit depth : 8 bits
Scan type : Progressive
Bits/(Pixel*Frame) : 0.261
Stream size : 1.45 GiB (86%)
Title : Mubarakan BDRip @ TmG
Writing library : x264 core 148 r2744 b97ae06
Encoding settings : cabac=1 / ref=4 / deblock=1:-2:-1 / analyse=0x3:0x113 / me=umh / subme=8 / psy=1 / psy_rd=1.00:0.00 / mixed_ref=1 / me_range=16 / chroma_me=0 / trellis=2 / 8x8dct=1 / cqm=0 / deadzone=21,11 / fast_pskip=1 / chroma_qp_offset=-2 / threads=9 / lookahead_threads=1 / sliced_threads=0 / nr=0 / decimate=1 / interlaced=0 / bluray_compat=0 / constrained_intra=0 / bframes=3 / b_pyramid=2 / b_adapt=2 / b_bias=0 / direct=3 / weightb=1 / open_gop=0 / weightp=2 / keyint=288 / keyint_min=23 / scenecut=40 / intra_refresh=0 / rc_lookahead=40 / rc=2pass / mbtree=1 / bitrate=1371 / ratetol=1.0 / qcomp=0.60 / qpmin=10 / qpmax=58 / qpstep=4 / cplxblur=16.0 / qblur=0.4 / vbv_maxrate=40000 / vbv_bufsize=40000 / nal_hrd=none / filler=0 / ip_ratio=1.40 / aq=1:1.00
Language : Hindi
Default : Yes
Forced : No
Color range : Full
Matrix coefficients : BT.709
Audio
ID : 2
Format : AC-3
Format/Info : Audio Coding 3
Format settings, Endianness : Big
Codec ID : A_AC3
Duration : 2 h 35 min
Bit rate mode : Constant
Bit rate : 192 kb/s
Channel(s) : 2 channels
Channel positions : Front: L R
Sampling rate : 48.0 kHz
Frame rate : 31.250 FPS (1536 SPF)
Bit depth : 16 bits
Compression mode : Lossy
Stream size : 213 MiB (12%)
Service kind : Complete Main
Default : Yes
Forced : No

Скриншот c названием фильма

Скриншоты


[freetreker.nl].t182.torrent 
 СЕРЕБРЯНАЯ РАЗДАЧА! СКАЧАННОЕ ЗАСЧИТЫВАЕТСЯ ТОЛЬКО НАПОЛОВИНУ! 
Торрент: Зарегистрирован [ 2017-11-19 10:53 ] · 1D164C25029204449FE4DBEB4ECDC04954159184

Скачать .torrent

Скачать

18 KB

Статус: проверено
Скачан: 11 раз
Размер: 1,7 GB
terms.php
Похожие темы:
[Профиль] [ЛС]
Показать сообщения:    
Ответить на тему

Текущее время: 21-Июн 18:03

Часовой пояс: UTC ± 0



Вы не можете начинать темы
Вы не можете отвечать на сообщения
Вы не можете редактировать свои сообщения
Вы не можете удалять свои сообщения
Вы не можете голосовать в опросах
Вы не можете прикреплять файлы к сообщениям
Вы можете скачивать файлы