Урок окончен / Dismissed (2017) WEBRip 1080p | DVO RecentFilms

Ответить на тему
Статистика раздачи
Размер:  2,85 GB   |    Зарегистрирован:  1 год   |    Скачан:  2 раза

Полного источника не было: 11 месяцев

 
     
 
 
 
Автор Сообщение

Grandfather61 ®

Пол: Мужской

Стаж: 1 год 5 месяцев

Сообщений: 641

Создавать темы 25-Ноя-2017 04:10

[Цитировать]


Информация о фильме
Название: Урок окончен
Оригинальное название: Dismissed
Год выхода: 2017
Жанр: Триллер
Режиссер: Бенджамин Арфманн
В ролях: Дилан Спроус, Рэндолл Парк, Кристофер Бауэр, Брук Диллман, Рэй Грэй, Кент Осборн, Роуэн Смит, Роберт Лонгстрит, Мэттью Дж. Эванс, Марк Келли и другие
О фильме:
Лукас Уорд - прилежный ученик, отличник, победитель всех шахматных турниров. На пути к цели Лукас не остановится ни перед чем. Самое главное для него, это быть лучше всех. Даже не пытайтесь поставить ему плохую оценку. Лукасу это очень не понравится.

Страна: США, BoulderLight Pictures, Making Film
Продолжительность: 01:27:23
Перевод: Любительский (двухголосый закадровый) | RecentFilms
Файл
Кодек: MPEG-4 AVC/H.264
Качество: WEBRip 1080p
Видео: 1920x816, 23,976 fps, ~4483 Kbps, 0.119 bit/pixel
Звук:
Аудио rus: AC3, 48 kHz, 2 ch, 192 Kbps
Субтитры: отсутствуют
Реклама: присутствует
Семпл

MediaInfo

General
Unique ID : 212322641872522193068934894927657317527 (0x9FBBDA7776AE07D5A434933FD8843497)
Complete name : F:FilmsDismissed.2017.1080p.WEBRip.RecentFilmsDismissed.2017.1080p.WEBRip.RecentFilms.mkv
Format : Matroska
Format version : Version 4 / Version 2
File size : 2.85 GiB
Duration : 1h 27mn
Overall bit rate : 4 676 Kbps
Encoded date : UTC 2017-11-24 22:18:48
Writing application : mkvmerge v17.0.0 ('Be Ur Friend') 64-bit
Writing library : libebml v1.3.5 + libmatroska v1.4.8
Video
ID : 1
Format : AVC
Format/Info : Advanced Video Codec
Format profile : [email protected]
Format settings, CABAC : Yes
Format settings, ReFrames : 4 frames
Codec ID : V_MPEG4/ISO/AVC
Duration : 1h 27mn
Bit rate : 4 483 Kbps
Width : 1 920 pixels
Height : 816 pixels
Display aspect ratio : 2.35:1
Frame rate mode : Constant
Frame rate : 23.976 (23976/1000) fps
Color space : YUV
Chroma subsampling : 4:2:0
Bit depth : 8 bits
Scan type : Progressive
Bits/(Pixel*Frame) : 0.119
Stream size : 2.74 GiB (96%)
Writing library : x264 core 148
Encoding settings : cabac=1 / ref=3 / deblock=1:0:0 / analyse=0x3:0x113 / me=hex / subme=7 / psy=1 / psy_rd=1.00:0.00 / mixed_ref=1 / me_range=16 / chroma_me=1 / trellis=1 / 8x8dct=1 / cqm=0 / deadzone=21,11 / fast_pskip=1 / chroma_qp_offset=-2 / threads=12 / lookahead_threads=2 / sliced_threads=0 / nr=0 / decimate=1 / interlaced=0 / bluray_compat=0 / constrained_intra=0 / bframes=3 / b_pyramid=2 / b_adapt=1 / b_bias=0 / direct=1 / weightb=1 / open_gop=0 / weightp=2 / keyint=250 / keyint_min=23 / scenecut=40 / intra_refresh=0 / rc_lookahead=40 / rc=abr / mbtree=1 / bitrate=4483 / ratetol=1.0 / qcomp=0.60 / qpmin=0 / qpmax=69 / qpstep=4 / ip_ratio=1.40 / aq=1:1.00
Language : English
Default : Yes
Forced : No
Audio
ID : 2
Format : AC-3
Format/Info : Audio Coding 3
Mode extension : CM (complete main)
Format settings, Endianness : Big
Codec ID : A_AC3
Duration : 1h 27mn
Bit rate mode : Constant
Bit rate : 192 Kbps
Channel(s) : 2 channels
Channel positions : Front: L R
Sampling rate : 48.0 KHz
Frame rate : 31.250 fps (1536 spf)
Compression mode : Lossy
Stream size : 120 MiB (4%)
Default : Yes
Forced : No

Скриншоты

Релиз от: RecentFilms
[freetreker.nl].t186.torrent 
Торрент: Зарегистрирован [ 2017-11-25 04:10 ] · 93C9A9856DB644B84F06C63B9A11B1D33BA17D09

Скачать .torrent

Скачать

15 KB

Статус: проверено
Скачан: 2 раз
Размер: 2,85 GB
terms.php
Похожие темы:
[Профиль] [ЛС]
Показать сообщения:    
Ответить на тему

Текущее время: 19-Дек 03:01

Часовой пояс: UTC ± 0



Вы не можете начинать темы
Вы не можете отвечать на сообщения
Вы не можете редактировать свои сообщения
Вы не можете удалять свои сообщения
Вы не можете голосовать в опросах
Вы не можете прикреплять файлы к сообщениям
Вы можете скачивать файлы