Урок окончен / Dismissed (2017) WEBRip | DVO RecentFilms

Ответить на тему
Статистика раздачи
Размер:  1,39 GB   |    Зарегистрирован:  1 год   |    Скачан:  0 раз

Полного источника не было: 1 год

 
     
 
 
 
Автор Сообщение

Grandfather61 ®

Пол: Мужской

Стаж: 1 год 5 месяцев

Сообщений: 641

Создавать темы 25-Ноя-2017 04:28

[Цитировать]


Информация о фильме
Название: Урок окончен
Оригинальное название: Dismissed
Год выхода: 2017
Жанр: Триллер
Режиссер: Бенджамин Арфманн
В ролях: Дилан Спроус, Рэндолл Парк, Кристофер Бауэр, Брук Диллман, Рэй Грэй, Кент Осборн, Роуэн Смит, Роберт Лонгстрит, Мэттью Дж. Эванс, Марк Келли и другие
О фильме:
Лукас Уорд - прилежный ученик, отличник, победитель всех шахматных турниров. На пути к цели Лукас не остановится ни перед чем. Самое главное для него, это быть лучше всех. Даже не пытайтесь поставить ему плохую оценку. Лукасу это очень не понравится.

Страна: США, BoulderLight Pictures, Making Film
Продолжительность: 01:27:23
Перевод: Любительский (двухголосый закадровый) | RecentFilms
Файл
Кодек: XviD
Качество: WEBRip
Видео: 720x304 , 23,976 fps, ~2074 Kbps, 0.40 bit/pixel
Звук:
Аудио rus: AC3, 48 kHz, 2 ch, 192 Kbps
Субтитры: отсутствуют
Реклама: присутствует
Семпл

MediaInfo

General
Complete name : F:FilmsDismissed.2017.WEBRip.RecentFilmsDismissed.2017.WEBRip.RecentFilms.avi
Format : AVI
Format/Info : Audio Video Interleave
Format profile : OpenDML
File size : 1.39 GiB
Duration : 1h 27mn
Overall bit rate : 2 273 Kbps
Writing application : Lavf57.71.100
Video
ID : 0
Format : MPEG-4 Visual
Format profile : Advanced [email protected]
Format settings, BVOP : 1
Format settings, QPel : No
Format settings, GMC : No warppoints
Format settings, Matrix : Default (H.263)
Codec ID : XVID
Codec ID/Hint : XviD
Duration : 1h 27mn
Bit rate : 2 069 Kbps
Width : 720 pixels
Height : 304 pixels
Display aspect ratio : 2.35:1
Frame rate : 23.976 (24000/1001) fps
Color space : YUV
Chroma subsampling : 4:2:0
Bit depth : 8 bits
Scan type : Progressive
Compression mode : Lossy
Bits/(Pixel*Frame) : 0.394
Stream size : 1.26 GiB (91%)
Writing library : XviD 67
Audio
ID : 1
Format : AC-3
Format/Info : Audio Coding 3
Mode extension : CM (complete main)
Format settings, Endianness : Big
Codec ID : 2000
Duration : 1h 27mn
Bit rate mode : Constant
Bit rate : 192 Kbps
Channel(s) : 2 channels
Channel positions : Front: L R
Sampling rate : 48.0 KHz
Frame rate : 31.250 fps (1536 spf)
Bit depth : 16 bits
Compression mode : Lossy
Stream size : 120 MiB (8%)
Alignment : Aligned on interleaves
Interleave, duration : 32 ms (0.77 video frame)

Скриншоты

Релиз от: RecentFilms
[freetreker.nl].t187.torrent 
Торрент: Зарегистрирован [ 2017-11-25 04:28 ] · 73428A3C429B2D5DFCCAD319D4FB7DDD16DF7D73

Скачать .torrent

Скачать

14 KB

Статус: проверено
Скачан: 0 раз
Размер: 1,39 GB
terms.php
Похожие темы:
[Профиль] [ЛС]
Показать сообщения:    
Ответить на тему

Текущее время: 19-Дек 03:16

Часовой пояс: UTC ± 0



Вы не можете начинать темы
Вы не можете отвечать на сообщения
Вы не можете редактировать свои сообщения
Вы не можете удалять свои сообщения
Вы не можете голосовать в опросах
Вы не можете прикреплять файлы к сообщениям
Вы можете скачивать файлы