Случай в отеле «Нил Хилтон» / The Nile Hilton Incident (2017) WEBRip | DVO RecentFilms

Ответить на тему
Статистика раздачи
Размер:  1,44 GB   |    Зарегистрирован:  4 месяца 25 дней   |    Скачан:  0 раз

Полного источника не было: 4 месяца 12 дней

 
     
 
 
 
Автор Сообщение

Grandfather61 ®

Пол: Мужской

Стаж: 9 месяцев 11 дней

Сообщений: 507

Создавать темы 25-Ноя-2017 16:48

[Цитировать]


Информация о фильме
Название: Случай в отеле «Нил Хилтон»
Оригинальное название: The Nile Hilton Incident
Год выхода: 2017
Жанр: Триллер, драма, криминал
Режиссер: Тарик Салех
В ролях: Фарес Фарес, Мари Малек, Яссер Али Махер, Слиман Дази, Ахмед Селим, Мохамед Юсры, Ханья Амар, Халед Абдельхамед, Мохамед Абдуни и другие
О фильме:
В высококлассном отеле совершается убийство, свидетелем которого стала горничная, и полицейский принимается за поиски убийцы. Но вскоре становится ясно, что некие важные люди не хотят, чтобы преступление было раскрыто.

Страна: Франция, Германия, Швеция, Дания
Продолжительность: 01:51:29
Перевод: Любительский (двухголосый закадровый) | RecentFilms
Файл
Кодек: XviD
Качество: WEBRip 720p
Видео: 720x304, 23,976 fps, ~1653 Kbps, 0.32 bit/pixel
Звук:
Аудио rus: AC3, 48 kHz, 2 ch, 192 Kbps
Субтитры: отсутствуют
Реклама: присутствует
Семпл

MediaInfo

General
Complete name : F:\Films\The.Nile.Hilton.Incident.2017.WEBRip.RecentFilms\The.Nile.Hilton.Incident.2017.WEBRip.RecentFilms.avi
Format : AVI
Format/Info : Audio Video Interleave
Format profile : OpenDML
File size : 1.44 GiB
Duration : 1h 51mn
Overall bit rate : 1 852 Kbps
Writing application : Lavf57.71.100
Video
ID : 0
Format : MPEG-4 Visual
Format profile : Advanced Simple@L5
Format settings, BVOP : 1
Format settings, QPel : No
Format settings, GMC : No warppoints
Format settings, Matrix : Default (H.263)
Codec ID : XVID
Codec ID/Hint : XviD
Duration : 1h 51mn
Bit rate : 1 648 Kbps
Width : 720 pixels
Height : 304 pixels
Display aspect ratio : 2.40:1
Frame rate : 23.976 (24000/1001) fps
Color space : YUV
Chroma subsampling : 4:2:0
Bit depth : 8 bits
Scan type : Progressive
Compression mode : Lossy
Bits/(Pixel*Frame) : 0.314
Stream size : 1.28 GiB (89%)
Writing library : XviD 67
Audio
ID : 1
Format : AC-3
Format/Info : Audio Coding 3
Mode extension : CM (complete main)
Format settings, Endianness : Big
Codec ID : 2000
Duration : 1h 51mn
Bit rate mode : Constant
Bit rate : 192 Kbps
Channel(s) : 2 channels
Channel positions : Front: L R
Sampling rate : 48.0 KHz
Frame rate : 31.250 fps (1536 spf)
Bit depth : 16 bits
Compression mode : Lossy
Stream size : 153 MiB (10%)
Alignment : Aligned on interleaves
Interleave, duration : 32 ms (0.77 video frame)

Скриншоты

Релиз от: RecentFilms
[freetreker.nl].t189.torrent 
Торрент: Зарегистрирован [ 2017-11-25 16:48 ] · B54B6C42A56DD0ED4587789447F481D1D844F3A5

Скачать .torrent

Скачать

16 KB

Статус: проверено
Скачан: 0 раз
Размер: 1,44 GB
terms.php
Похожие темы:
[Профиль] [ЛС]
Показать сообщения:    
Ответить на тему

Текущее время: 21-Апр 00:11

Часовой пояс: UTC ± 0



Вы не можете начинать темы
Вы не можете отвечать на сообщения
Вы не можете редактировать свои сообщения
Вы не можете удалять свои сообщения
Вы не можете голосовать в опросах
Вы не можете прикреплять файлы к сообщениям
Вы можете скачивать файлы