Никогда не ходите в поход одни / Never Hike Alone (2017) WEBRip | DVO RecentFilms

Ответить на тему
Статистика раздачи
Размер:  714 MB   |    Зарегистрирован:  5 месяцев   |    Скачан:  0 раз

Полного источника не было: 4 месяца 19 дней

 
     
 
 
 
Автор Сообщение

Grandfather61 ®

Пол: Мужской

Стаж: 9 месяцев 17 дней

Сообщений: 510

Создавать темы 26-Ноя-2017 04:49

[Цитировать]


Информация о фильме
Название: Никогда не ходите в поход одни
Оригинальное название: Never Hike Alone
Год выхода: 2017
Жанр: Ужасы, триллер
Режиссер: Винсенте ДиСанти
В ролях: Том Мэтьюз, Кэти Шварц, Дрю Лайти, Роберт Дюбуа, Винсенте ДиСанти и другие
О фильме:
Навыки выживания туриста подвергаются испытанию, когда он натыкается на останки старого заброшенного лагеря и обнаруживает его тёмные секреты.

Страна: США, Womp Stomp Films
Продолжительность: 00:54:12
Перевод: Любительский (двухголосый закадровый) | RecentFilms
Файл
Кодек: XviD
Качество: WEBRip
Видео: 720x400, 23,976 fps, ~1639 Kbps, 0.24 bit/pixel
Звук:
Аудио rus: AC3, 48 kHz, 2 ch, 192 Kbps
Субтитры: отсутствуют
Реклама: присутствует
Семпл

MediaInfo

General
Complete name : F:FilmsNever Hike Alone.WEBRip.RecentFilmsNever Hike Alone.WEBRip.RecentFilms.avi
Format : AVI
Format/Info : Audio Video Interleave
File size : 714 MiB
Duration : 54mn 12s
Overall bit rate : 1 842 Kbps
Writing application : Lavf57.71.100
Video
ID : 0
Format : MPEG-4 Visual
Format profile : Advanced Simple@L5
Format settings, BVOP : 1
Format settings, QPel : No
Format settings, GMC : No warppoints
Format settings, Matrix : Default (H.263)
Codec ID : XVID
Codec ID/Hint : XviD
Duration : 54mn 12s
Bit rate : 1 640 Kbps
Width : 720 pixels
Height : 400 pixels
Display aspect ratio : 16:9
Frame rate : 24.000 fps
Color space : YUV
Chroma subsampling : 4:2:0
Bit depth : 8 bits
Scan type : Progressive
Compression mode : Lossy
Bits/(Pixel*Frame) : 0.237
Stream size : 636 MiB (89%)
Writing library : XviD 67
Audio
ID : 1
Format : AC-3
Format/Info : Audio Coding 3
Mode extension : CM (complete main)
Format settings, Endianness : Big
Codec ID : 2000
Duration : 54mn 12s
Bit rate mode : Constant
Bit rate : 192 Kbps
Channel(s) : 2 channels
Channel positions : Front: L R
Sampling rate : 48.0 KHz
Frame rate : 31.250 fps (1536 spf)
Bit depth : 16 bits
Compression mode : Lossy
Stream size : 74.4 MiB (10%)
Alignment : Aligned on interleaves
Interleave, duration : 32 ms (0.77 video frame)

Скриншоты

Релиз от: RecentFilms
[freetreker.nl].t191.torrent 
Торрент: Зарегистрирован [ 2017-11-26 04:49 ] · C32B3EA6013B895D613EB734CAF9A26BBB6B8E34

Скачать .torrent

Скачать

15 KB

Статус: проверено
Скачан: 0 раз
Размер: 714 MB
terms.php
Похожие темы:
[Профиль] [ЛС]
Показать сообщения:    
Ответить на тему

Текущее время: 26-Апр 19:20

Часовой пояс: UTC ± 0



Вы не можете начинать темы
Вы не можете отвечать на сообщения
Вы не можете редактировать свои сообщения
Вы не можете удалять свои сообщения
Вы не можете голосовать в опросах
Вы не можете прикреплять файлы к сообщениям
Вы можете скачивать файлы