Убийца на шпильках / High Heel Homicide (2017) WEBRip | DVO RecentFilms

Ответить на тему
Статистика раздачи
Размер:  1,37 GB   |    Зарегистрирован:  9 месяцев 21 день   |    Скачан:  1 раз

Полного источника не было: 7 месяцев 6 дней

 
     
 
 
 
Автор Сообщение

Grandfather61 ®

Пол: Мужской

Стаж: 1 год 2 месяца

Сообщений: 582

Создавать темы 27-Ноя-2017 04:32

[Цитировать]


Информация о фильме
Название: Убийца на шпильках
Оригинальное название: High Heel Homicide
Год выхода: 2017
Жанр: Триллер
Режиссер: Дин МакКендрик
В ролях: Картер Крус, Миа Ли, Брент Харви, Аугуст Амес, Анджело Бертоли, Леандро Доттавио, Эндрю Эспиноза Лонг, Блэр Уильямс и другие
О фильме:
Поскольку череда жестоких убийств поражает город, два детектива под прикрытием расследуют эти преступления и разоблачают убийцу. Их единственные подсказки: каждая жертва - бывший полицейский, и каждый имеет...

Страна: США, Retromedia Entertainment
Продолжительность: 01:21:50
Перевод: Любительский (двухголосый закадровый) | RecentFilms
Файл
Кодек: XviD
Качество: WEBRip
Видео: 720x400, 23,976 fps, ~2201 Kbps, 0.32 bit/pixel
Звук:
Аудио rus: AC3, 48 kHz, 2 ch, 192 Kbps
Субтитры: отсутствуют
Реклама: присутствует

Семпл

MediaInfo

General
Complete name : F:FilmsHigh.Heel.Homicide.2017.HDRip.RecentFilmsHigh.Heel.Homicide.2017.HDRip.RecentFilms.avi
Format : AVI
Format/Info : Audio Video Interleave
Format profile : OpenDML
File size : 1.37 GiB
Duration : 1h 21mn
Overall bit rate : 2 400 Kbps
Writing application : Lavf57.71.100
Video
ID : 0
Format : MPEG-4 Visual
Format profile : Advanced Simple@L5
Format settings, BVOP : 1
Format settings, QPel : No
Format settings, GMC : No warppoints
Format settings, Matrix : Default (H.263)
Codec ID : XVID
Codec ID/Hint : XviD
Duration : 1h 21mn
Bit rate : 2 196 Kbps
Width : 720 pixels
Height : 400 pixels
Display aspect ratio : 16:9
Frame rate : 23.976 (24000/1001) fps
Color space : YUV
Chroma subsampling : 4:2:0
Bit depth : 8 bits
Scan type : Progressive
Compression mode : Lossy
Bits/(Pixel*Frame) : 0.318
Stream size : 1.26 GiB (91%)
Writing library : XviD 67
Audio
ID : 1
Format : AC-3
Format/Info : Audio Coding 3
Mode extension : CM (complete main)
Format settings, Endianness : Big
Codec ID : 2000
Duration : 1h 21mn
Bit rate mode : Constant
Bit rate : 192 Kbps
Channel(s) : 2 channels
Channel positions : Front: L R
Sampling rate : 48.0 KHz
Frame rate : 31.250 fps (1536 spf)
Bit depth : 16 bits
Compression mode : Lossy
Stream size : 112 MiB (8%)
Alignment : Aligned on interleaves
Interleave, duration : 32 ms (0.77 video frame)

Скриншоты

Релиз от: RecentFilms
[freetreker.nl].t192.torrent 
Торрент: Зарегистрирован [ 2017-11-27 04:32 ] · 4A9B2B01AB0F26C63F61FE2E2573F9EEEF3D759B

Скачать .torrent

Скачать

15 KB

Статус: проверено
Скачан: 1 раз
Размер: 1,37 GB
terms.php
Похожие темы:
[Профиль] [ЛС]
Показать сообщения:    
Ответить на тему

Текущее время: 18-Сен 15:10

Часовой пояс: UTC ± 0



Вы не можете начинать темы
Вы не можете отвечать на сообщения
Вы не можете редактировать свои сообщения
Вы не можете удалять свои сообщения
Вы не можете голосовать в опросах
Вы не можете прикреплять файлы к сообщениям
Вы можете скачивать файлы