Счастливчик Стэна Ли / Stan Lee's Lucky Man / Сезон 2 / Серии 1-10 (10) (Джон Ист) [2016, Фантастика, боевик, HDTVrip 1080p] MVO (OMSKBIRD)

Ответить на тему
Статистика раздачи
Размер:  22,69 GB   |    Зарегистрирован:  9 месяцев 22 дня   |    Скачан:  1 раз

Полного источника не было: 1 месяц 13 дней

 
     
 
 
 
Автор Сообщение

Gater ®

Пол: Не указан

Стаж: 1 год 2 месяца

Сообщений: 1375

Создавать темы 27-Ноя-2017 12:50

[Цитировать]

-Счастливчик Стэна Ли / Stan Lee's Lucky Man- Название: Счастливчик Стэна Ли
Оригинальное название: Stan Lee's Lucky Man
Год выхода: 2017
Жанр: Фантастика, боевик
Режиссер: Джон Ист, Брайан Келли
В ролях: Джеймс Несбитт, Стефен Хэйгэн, Джозеф Гатт, Лиза Диллон, Ли Николас Харрис, Мэтт Таунсенд, Эндрю Ли Поттс, Пол Блэкуэлл, Гарри Марриотт, Лаура Свифт и др.
О фильме:
Действие сериала будет происходить в Лондоне. Главный герой – полицейский, чей главный минус – пристрастие к азартным играм.
До добра это не довело – во-первых, его оставили жена с ребенком, во-вторых, у героя образовался солидный долг перед мафией.
Как жить дальше? Ответ подсказывает некий волшебный браслет, который «коп» случайно находит…
Страна: Великобритания
Продолжительность: ~ 44 мин. серия
Перевод: Профессиональный (многоголосый закадровый) | OMSKBIRD
Файл
Кодек: MPEG-4 AVC
Качество: HDTVrip 1080p
Видео: MKV, 1920x1080 (16:9), 25.000 fps, ~ 8200 kbps
Звук: Аудио rus: AC-3, 48 KHz, 6 ch, 384 kbps | OMSKBIRD records
Аудио eng: AC-3, 48 KHz, 6 ch, 384 kbps

Скриншоты

Mediainfo:

General
Unique ID : 249688591207629543432782714902966026464 (0xBBD8460155A5869DADB17F4242D1C0E0)
Complete name : F:\Мои Документы\Видео\РАЗДАЧИ\Лаки Мэн\Lucky Man S02 HDTVRip 1080p (OMSKBIRD)\Lucky Man S02E01 HDTVRip 1080p (OMSKBIRD).mkv
Format : Matroska
Format version : Version 2
File size : 2.91 GiB
Duration : 45mn 54s
Overall bit rate : 9 068 Kbps
Encoded date : UTC 2017-03-06 11:31:08
Writing application : mkvmerge v4.0.0 ('The Stars were mine') сборка от Jun 6 2010 16:18:42
Writing library : libebml v1.0.0 + libmatroska v1.0.0
Video
ID : 1
Format : AVC
Format/Info : Advanced Video Codec
Format profile : High@L4.1
Format settings, CABAC : Yes
Format settings, ReFrames : 4 frames
Codec ID : V_MPEG4/ISO/AVC
Duration : 45mn 54s
Bit rate : 8 120 Kbps
Width : 1 920 pixels
Height : 1 080 pixels
Display aspect ratio : 16:9
Frame rate mode : Variable
Frame rate : 25.000 fps
Color space : YUV
Chroma subsampling : 4:2:0
Bit depth : 8 bits
Scan type : Progressive
Bits/(Pixel*Frame) : 0.157
Stream size : 2.60 GiB (90%)
Writing library : x264 core 148 r2744 b97ae06
Encoding settings : cabac=1 / ref=4 / deblock=1:0:0 / analyse=0x3:0x113 / me=hex / subme=8 / psy=1 / psy_rd=1.00:0.00 / mixed_ref=1 / me_range=16 / chroma_me=1 / trellis=2 / 8x8dct=1 / cqm=0 / deadzone=21,11 / fast_pskip=1 / chroma_qp_offset=-2 / threads=6 / lookahead_threads=1 / sliced_threads=0 / nr=0 / decimate=1 / interlaced=0 / bluray_compat=0 / constrained_intra=0 / bframes=3 / b_pyramid=2 / b_adapt=1 / b_bias=0 / direct=3 / weightb=1 / open_gop=0 / weightp=2 / keyint=250 / keyint_min=25 / scenecut=40 / intra_refresh=0 / rc_lookahead=50 / rc=crf / mbtree=1 / crf=17.0 / qcomp=0.60 / qpmin=0 / qpmax=69 / qpstep=4 / ip_ratio=1.40 / aq=1:1.00
Default : No
Forced : No
Color primaries : BT.709-5, BT.1361, IEC 61966-2-4, SMPTE RP177
Transfer characteristics : BT.709-5, BT.1361
Matrix coefficients : BT.709-5, BT.1361, IEC 61966-2-4 709, SMPTE RP177
Audio #1
ID : 2
Format : AC-3
Format/Info : Audio Coding 3
Mode extension : CM (complete main)
Format settings, Endianness : Big
Codec ID : A_AC3
Duration : 45mn 54s
Bit rate mode : Constant
Bit rate : 384 Kbps
Channel(s) : 6 channels
Channel positions : Front: L C R, Side: L R, LFE
Sampling rate : 48.0 KHz
Bit depth : 16 bits
Compression mode : Lossy
Stream size : 126 MiB (4%)
Language : Russian
Default : Yes
Forced : No
Audio #2
ID : 3
Format : AC-3
Format/Info : Audio Coding 3
Mode extension : CM (complete main)
Format settings, Endianness : Big
Codec ID : A_AC3
Duration : 45mn 54s
Bit rate mode : Constant
Bit rate : 384 Kbps
Channel(s) : 2 channels
Channel positions : Front: L R
Sampling rate : 48.0 KHz
Bit depth : 16 bits
Compression mode : Lossy
Delay relative to video : 29ms
Stream size : 126 MiB (4%)
Language : English
Default : No
Forced : No
[freetreker.nl].t197.torrent 
Торрент: Зарегистрирован [ 2017-11-27 12:50 ] · 4805360D9FF0998354CD82D00780B16AA5C703AE

Скачать .torrent

Скачать

58 KB

Статус: проверено
Скачан: 1 раз
Размер: 22,69 GB
terms.php
Похожие темы:
[Профиль] [ЛС]
Показать сообщения:    
Ответить на тему

Текущее время: 19-Сен 14:26

Часовой пояс: UTC ± 0



Вы не можете начинать темы
Вы не можете отвечать на сообщения
Вы не можете редактировать свои сообщения
Вы не можете удалять свои сообщения
Вы не можете голосовать в опросах
Вы не можете прикреплять файлы к сообщениям
Вы можете скачивать файлы