Счастливчик Стэна Ли / Stan Lee's Lucky Man / Сезон 2 / Серии 1-10 (10) (Джон Ист) [2016, Фантастика, боевик, HDTVrip] MVO (OMSKBIRD)

Ответить на тему
Статистика раздачи
Размер:  6,44 GB   |    Зарегистрирован:  4 месяца 29 дней   |    Скачан:  0 раз

Полного источника не было: 2 месяца 12 дней

 
     
 
 
 
Автор Сообщение

Gater ®

Пол: Не указан

Стаж: 9 месяцев 17 дней

Сообщений: 972

Создавать темы 27-Ноя-2017 12:57

[Цитировать]

-Счастливчик Стэна Ли / Stan Lee's Lucky Man- Название: Счастливчик Стэна Ли
Оригинальное название: Stan Lee's Lucky Man
Год выхода: 2017
Жанр: Фантастика, боевик
Режиссер: Джон Ист, Брайан Келли
В ролях: Джеймс Несбитт, Стефен Хэйгэн, Джозеф Гатт, Лиза Диллон, Ли Николас Харрис, Мэтт Таунсенд, Эндрю Ли Поттс, Пол Блэкуэлл, Гарри Марриотт, Лаура Свифт и др.
О фильме:
Действие сериала будет происходить в Лондоне. Главный герой – полицейский, чей главный минус – пристрастие к азартным играм.
До добра это не довело – во-первых, его оставили жена с ребенком, во-вторых, у героя образовался солидный долг перед мафией.
Как жить дальше? Ответ подсказывает некий волшебный браслет, который «коп» случайно находит…
Страна: Великобритания
Продолжительность: ~ 44 мин. серия
Перевод: Профессиональный (многоголосый закадровый) | OMSKBIRD
Файл
Кодек: Xvid
Качество: HDTVrip
Видео: AVI, 720x400 (16:9), 23.976 fps, ~ 1800 kbps
Звук: Аудио rus: AC-3, 48 KHz, 2 ch, 192 kbps | OMSKBIRD

Скриншоты

Mediainfo:

General
Complete name                            : F:Мои ДокументыВидеоРАЗДАЧИЛаки МэнLucky Man S02 HDTVRip (OMSKBIRD)Lucky Man S02E01 HDTVRip (OMSKBIRD).avi
Format                                   : AVI
Format/Info                              : Audio Video Interleave
File size                                : 656 MiB
Duration                                 : 46mn 12s
Overall bit rate                         : 1 984 Kbps
Writing application                      : VirtualDubMod 1.5.10.3 | www.virtualdub-fr.org || (build 2550/release)
Writing library                          : VirtualDubMod build 2550/release
Video
ID                                       : 0
Format                                   : MPEG-4 Visual
Format profile                           : Advanced Simple@L5
Format settings, BVOP                    : 2
Format settings, QPel                    : No
Format settings, GMC                     : No warppoints
Format settings, Matrix                  : Default (MPEG)
Codec ID                                 : XVID
Codec ID/Hint                            : XviD
Duration                                 : 46mn 12s
Bit rate                                 : 1 783 Kbps
Width                                    : 720 pixels
Height                                   : 400 pixels
Display aspect ratio                     : 16:9
Frame rate                               : 25.000 fps
Color space                              : YUV
Chroma subsampling                       : 4:2:0
Bit depth                                : 8 bits
Scan type                                : Progressive
Compression mode                         : Lossy
Bits/(Pixel*Frame)                       : 0.248
Stream size                              : 589 MiB (90%)
Writing library                          : XviD 1.2.1 (UTC 2008-12-04)
Audio
ID                                       : 1
Format                                   : AC-3
Format/Info                              : Audio Coding 3
Mode extension                           : CM (complete main)
Format settings, Endianness              : Big
Codec ID                                 : 2000
Duration                                 : 46mn 12s
Bit rate mode                            : Constant
Bit rate                                 : 192 Kbps
Channel(s)                               : 2 channels
Channel positions                        : Front: L R
Sampling rate                            : 48.0 KHz
Bit depth                                : 16 bits
Compression mode                         : Lossy
Stream size                              : 63.5 MiB (10%)
Alignment                                : Split accross interleaves
Interleave, duration                     : 40 ms (1.00 video frame)
Interleave, preload duration             : 500 ms
[freetreker.nl].t199.torrent 
Торрент: Зарегистрирован [ 2017-11-27 12:57 ] · 71E59275B0A064D90948B021147406769A4A0000

Скачать .torrent

Скачать

18 KB

Статус: проверено
Скачан: 0 раз
Размер: 6,44 GB
terms.php
Похожие темы:
[Профиль] [ЛС]
Показать сообщения:    
Ответить на тему

Текущее время: 26-Апр 19:23

Часовой пояс: UTC ± 0



Вы не можете начинать темы
Вы не можете отвечать на сообщения
Вы не можете редактировать свои сообщения
Вы не можете удалять свои сообщения
Вы не можете голосовать в опросах
Вы не можете прикреплять файлы к сообщениям
Вы можете скачивать файлы