Мыслить как преступник: За границей / Criminal Minds: Beyond Borders / Сезон 2 / Серии 1-13 (13) (Роб Бэйли) [2016, драма, криминал, WEB-DLRip] MVO (OMSKBIRD)

Ответить на тему
Статистика раздачи
Размер:  7,38 GB   |    Зарегистрирован:  9 месяцев 21 день   |    Скачан:  0 раз

Полного источника не было: Никогда

 
     
 
 
 
Автор Сообщение

Gater ®

Пол: Не указан

Стаж: 1 год 2 месяца

Сообщений: 1375

Создавать темы 27-Ноя-2017 18:33

[Цитировать]

-Мыслить как преступник: За границей / Criminal Minds: Beyond Borders- Год выхода: 2017
Жанр: криминал, драма
Режиссер: Роб Бэйли, Мэтт Эрл Бисли, Лаура Белси
В ролях: Гэри Синиз, Энни Функе, Алана де ла Гарса, Дэниэл Хенни, Тайлер Джеймс Уильямс, Афшин Оляи и др.
О фильме:
Спин-офф детективного сериала "Мыслить как преступник". Сериал рассказывает об элитной команде из
ФБР, занимающейся расследованием преступлений за пределами США, в которые вовлечены американские граждане.
Страна: США
Продолжительность: ~ 44 мин. серия
Перевод: Профессиональный (многоголосый закадровый) | OMSKBIRD
Файл
Качество: WEB-DLRip
Формат: AVI
Видео: Xvid, 720x400 (16:9), 25.000 fps, ~ 1800 kbps
Звук: Аудио rus: AC-3, 48 KHz, 2 ch, 192 kbps

Скриншоты

Mediainfo:

General
Complete name                            : F:Мои ДокументыВидеоРАЗДАЧИКриминал МайндсCriminal Minds Beyond Borders S02 WEB-DLRip  (OMSKBIRD)Criminal Minds Beyond Borders S02E01 WEB-DLRip (OMSKBIRD).avi
Format                                   : AVI
Format/Info                              : Audio Video Interleave
File size                                : 577 MiB
Duration                                 : 40mn 53s
Overall bit rate                         : 1 974 Kbps
Writing application                      : VirtualDubMod 1.5.10.3 | www.virtualdub-fr.org || (build 2550/release)
Writing library                          : VirtualDubMod build 2550/release
Video
ID                                       : 0
Format                                   : MPEG-4 Visual
Format profile                           : Advanced Simple@L5
Format settings, BVOP                    : 2
Format settings, QPel                    : No
Format settings, GMC                     : No warppoints
Format settings, Matrix                  : Default (MPEG)
Codec ID                                 : XVID
Codec ID/Hint                            : XviD
Duration                                 : 40mn 53s
Bit rate                                 : 1 772 Kbps
Width                                    : 720 pixels
Height                                   : 400 pixels
Display aspect ratio                     : 16:9
Frame rate                               : 25.000 fps
Color space                              : YUV
Chroma subsampling                       : 4:2:0
Bit depth                                : 8 bits
Scan type                                : Progressive
Compression mode                         : Lossy
Bits/(Pixel*Frame)                       : 0.246
Stream size                              : 518 MiB (90%)
Writing library                          : XviD 1.2.1 (UTC 2008-12-04)
Audio
ID                                       : 1
Format                                   : AC-3
Format/Info                              : Audio Coding 3
Mode extension                           : CM (complete main)
Format settings, Endianness              : Big
Codec ID                                 : 2000
Duration                                 : 40mn 53s
Bit rate mode                            : Constant
Bit rate                                 : 192 Kbps
Channel(s)                               : 2 channels
Channel positions                        : Front: L R
Sampling rate                            : 48.0 KHz
Bit depth                                : 16 bits
Compression mode                         : Lossy
Stream size                              : 56.2 MiB (10%)
Alignment                                : Split accross interleaves
Interleave, duration                     : 40 ms (1.00 video frame)
Interleave, preload duration             : 500 ms
[freetreker.nl].t207.torrent 
Торрент: Зарегистрирован [ 2017-11-27 18:33 ] · 37276AB11C1D97427807F498335AAE4CEF40F565

Скачать .torrent

Скачать

21 KB

Статус: проверено
Скачан: 0 раз
Размер: 7,38 GB
terms.php
Похожие темы:
[Профиль] [ЛС]
Показать сообщения:    
Ответить на тему

Текущее время: 19-Сен 14:47

Часовой пояс: UTC ± 0



Вы не можете начинать темы
Вы не можете отвечать на сообщения
Вы не можете редактировать свои сообщения
Вы не можете удалять свои сообщения
Вы не можете голосовать в опросах
Вы не можете прикреплять файлы к сообщениям
Вы можете скачивать файлы