Эш против Зловещих мертвецов / Ash vs Evil Dead / Сезон 2 / Серии 1-10 (10) (Айван Рэйми) [2016, трэш, боевик, комедия, WEBRip] MVO (OMSKBIRD)

Ответить на тему
Статистика раздачи
Размер:  5,5 GB   |    Зарегистрирован:  9 месяцев 19 дней   |    Скачан:  0 раз

Полного источника не было: Никогда

 
     
 
 
 
Автор Сообщение

Gater ®

Пол: Не указан

Стаж: 1 год 2 месяца

Сообщений: 1375

Создавать темы 29-Ноя-2017 18:54

[Цитировать]

-Эш против Зловещих мертвецов / Ash vs Evil Dead- Год выпуска • 2016
Страна • США
Жанр • трэш, боевик, комедия
Продолжительность • ~30 мин.
Перевод
• Профессиональный (многоголосый, закадровый) "OMSKBIRD records"
-Создатель • Айван Рэйми, Сэм Рэйми, Том Спезейли
В ролях • Брюс Кэмпбелл, Джилл Мари Джонс, Дэна ДеЛоренцо, Люси Лоулесс, Рэй Сантьяго, Мими Роджерс, Хемки Мадера, Фил Пелетон, Идо Дрент, Дэмиен Гарви и др.-Описание • Последние тридцать лет Эш старательно избегал всего, что связано с воспоминаниями о зловещих мертвецах, но когда очередное нашествие дедайтов грозит уничтожить все все население планеты, Эш становится единственным шансом человечества на спасение.-
Качество: WEBRip
Формат: AVI
Видео: Xvid / ~ 2000 kbps / 720:400p / 23.976 fps / 16:9 / ~ 0.280 bit/pixel
Аудио:
Русский / Dolby Digital 5.1 / 48 kHz / 384 kbps
English / Dolby Digital 5.1 / 48 kHz / 384 kbps-

Скриншоты

-

MediaInfo


General
Complete name : F:\Мои Документы\Видео\РАЗДАЧИ\Эш\Ash vs Evil Dead s02 WEBRip (OMSKBIRD)\Ash vs Evil Dead s02e01 WEBRip (OMSKBIRD).avi
Format : AVI
Format/Info : Audio Video Interleave
File size : 663 MiB
Duration : 33mn 55s
Overall bit rate : 2 731 Kbps
Writing application : VirtualDubMod 1.5.10.3 | www.virtualdub-fr.org || (build 2550/release)
Writing library : VirtualDubMod build 2550/release
Video
ID : 0
Format : MPEG-4 Visual
Format profile : Advanced Simple@L5
Format settings, BVOP : 2
Format settings, QPel : No
Format settings, GMC : No warppoints
Format settings, Matrix : Default (MPEG)
Codec ID : XVID
Codec ID/Hint : XviD
Duration : 33mn 55s
Bit rate : 1 949 Kbps
Width : 720 pixels
Height : 400 pixels
Display aspect ratio : 16:9
Frame rate : 23.976 fps
Color space : YUV
Chroma subsampling : 4:2:0
Bit depth : 8 bits
Scan type : Progressive
Compression mode : Lossy
Bits/(Pixel*Frame) : 0.282
Stream size : 473 MiB (71%)
Writing library : XviD 1.2.1 (UTC 2008-12-04)
Audio #1
ID : 1
Format : AC-3
Format/Info : Audio Coding 3
Mode extension : CM (complete main)
Format settings, Endianness : Big
Codec ID : 2000
Duration : 33mn 55s
Bit rate mode : Constant
Bit rate : 384 Kbps
Channel(s) : 6 channels
Channel positions : Front: L C R, Side: L R, LFE
Sampling rate : 48.0 KHz
Bit depth : 16 bits
Compression mode : Lossy
Stream size : 93.2 MiB (14%)
Alignment : Split accross interleaves
Interleave, duration : 42 ms (1.00 video frame)
Interleave, preload duration : 500 ms
Audio #2
ID : 2
Format : AC-3
Format/Info : Audio Coding 3
Mode extension : CM (complete main)
Format settings, Endianness : Big
Codec ID : 2000
Duration : 33mn 55s
Bit rate mode : Constant
Bit rate : 384 Kbps
Channel(s) : 6 channels
Channel positions : Front: L C R, Side: L R, LFE
Sampling rate : 48.0 KHz
Bit depth : 16 bits
Compression mode : Lossy
Stream size : 93.2 MiB (14%)
Alignment : Split accross interleaves
Interleave, duration : 42 ms (1.00 video frame)
Interleave, preload duration : 500 ms
[freetreker.nl].t225.torrent 
Торрент: Зарегистрирован [ 2017-11-29 18:54 ] · 511442A9602217A42A6371B2F2810D47238A8832

Скачать .torrent

Скачать

15 KB

Статус: проверено
Скачан: 0 раз
Размер: 5,5 GB
terms.php
Похожие темы:
[Профиль] [ЛС]
Показать сообщения:    
Ответить на тему

Текущее время: 19-Сен 14:36

Часовой пояс: UTC ± 0



Вы не можете начинать темы
Вы не можете отвечать на сообщения
Вы не можете редактировать свои сообщения
Вы не можете удалять свои сообщения
Вы не можете голосовать в опросах
Вы не можете прикреплять файлы к сообщениям
Вы можете скачивать файлы