Изгоняющий дьявола / The Exorcist / Сезон 1 / Серии 1-10 (10) (Джереми Слэйтер) [2016, ужасы, триллер, WEB-DL 720p] MVO (OMSKBIRD)

Ответить на тему
Статистика раздачи
Размер:  14,8 GB   |    Зарегистрирован:  1 год   |    Скачан:  0 раз

Полного источника не было: Никогда

 
     
 
 
 
Автор Сообщение

Gater ®

Пол: Не указан

Стаж: 1 год 5 месяцев

Сообщений: 1582

Создавать темы 29-Ноя-2017 18:58

[Цитировать]

-Изгоняющий дьявола / The Exorcist- Год выпуска • 2016
Страна • США
Жанр • ужасы, триллер
Продолжительность • ~44 мин.
Перевод
• Профессиональный (многоголосый, закадровый) "OMSKBIRD records"
-Создатель • Джереми Слэйтер
В ролях • Альфонсо Эррера, Бен Дэниелс, Джина Дэвис, Ханна Касулка, Брианна Хоуи, Алан Рак, Музам Маккар, Френсис Гуинан и др.-Описание • Психологический триллер, события которого перенесены в современность, повествует о смиренном, самоотверженном отце Томасе Ортеге и пылком божьем воине отце Маркусе Лэнге, которым, невзирая на разность взглядов, предстоит объединиться в неравной битве со злом в виде демонической одержимости в одной семье.-
Качество: iTunes WEB-DL 720p
Формат: MKV
Видео: MPEG-4 AVC / ~ 4000 kbps / 1280х720p / 23.976 fps / 16:9 / ~ 0.103 bit/pixel / High Level 3.1
Аудио:
Русский / Dolby Digital 5.1 / 48 kHz / 384 kbps
English / Dolby Digital 5.1 / 48 kHz / 384 kbps-

Скриншоты

-

MediaInfo


General
Unique ID : 209041732231647594687778160174523542474 (0x9D43F921E0283F0B81A473CB5070EBCA)
Complete name : F:\Мои Документы\Видео\РАЗДАЧИ\Экзорцист\The Exorcist S01 WEB-DL 720p (OMSKBIRD)\The Exorcist S01E01 WEB-DL 720p (OMSKBIRD).mkv
Format : Matroska
Format version : Version 2
File size : 1.59 GiB
Duration : 47mn 6s
Overall bit rate : 4 826 Kbps
Encoded date : UTC 2016-10-17 15:08:31
Writing application : mkvmerge v4.0.0 ('The Stars were mine') сборка от Jun 6 2010 16:18:42
Writing library : libebml v1.0.0 + libmatroska v1.0.0
Video
ID : 1
Format : AVC
Format/Info : Advanced Video Codec
Format profile : [email protected]
Format settings, CABAC : No
Format settings, ReFrames : 2 frames
Codec ID : V_MPEG4/ISO/AVC
Duration : 47mn 6s
Bit rate : 3 962 Kbps
Width : 1 280 pixels
Height : 720 pixels
Display aspect ratio : 16:9
Frame rate : 23.976 fps
Color space : YUV
Chroma subsampling : 4:2:0
Bit depth : 8 bits
Scan type : Progressive
Bits/(Pixel*Frame) : 0.179
Stream size : 1.30 GiB (82%)
Language : English
Default : No
Forced : No
Color primaries : BT.709-5, BT.1361, IEC 61966-2-4, SMPTE RP177
Transfer characteristics : BT.709-5, BT.1361
Matrix coefficients : BT.709-5, BT.1361, IEC 61966-2-4 709, SMPTE RP177
Audio #1
ID : 2
Format : AC-3
Format/Info : Audio Coding 3
Mode extension : CM (complete main)
Format settings, Endianness : Big
Codec ID : A_AC3
Duration : 47mn 6s
Bit rate mode : Constant
Bit rate : 384 Kbps
Channel(s) : 6 channels
Channel positions : Front: L C R, Side: L R, LFE
Sampling rate : 48.0 KHz
Bit depth : 16 bits
Compression mode : Lossy
Stream size : 129 MiB (8%)
Language : Russian
Default : Yes
Forced : No
Audio #2
ID : 3
Format : AC-3
Format/Info : Audio Coding 3
Mode extension : CM (complete main)
Format settings, Endianness : Big
Codec ID : A_AC3
Duration : 47mn 6s
Bit rate mode : Constant
Bit rate : 384 Kbps
Channel(s) : 6 channels
Channel positions : Front: L C R, Side: L R, LFE
Sampling rate : 48.0 KHz
Bit depth : 16 bits
Compression mode : Lossy
Stream size : 129 MiB (8%)
Language : English
Default : No
Forced : No
[freetreker.nl].t226.torrent 
Торрент: Зарегистрирован [ 2017-11-29 18:58 ] · 93E1D9455AD311090B34D25C14C8D4BE026976C0

Скачать .torrent

Скачать

38 KB

Статус: проверено
Скачан: 0 раз
Размер: 14,8 GB
terms.php
Похожие темы:
[Профиль] [ЛС]
Показать сообщения:    
Ответить на тему

Текущее время: 19-Дек 03:50

Часовой пояс: UTC ± 0



Вы не можете начинать темы
Вы не можете отвечать на сообщения
Вы не можете редактировать свои сообщения
Вы не можете удалять свои сообщения
Вы не можете голосовать в опросах
Вы не можете прикреплять файлы к сообщениям
Вы можете скачивать файлы