Штамм / The Strain / Сезон 4 / Серии 1-10 (10) (Гильермо дель Торо, Чак Хоган) [2017, США, ужасы, драма, WEB-DLRip] MVO (OMSKBIRD)

Ответить на тему
Статистика раздачи
Размер:  6,01 GB   |    Зарегистрирован:  1 год   |    Скачан:  0 раз

Полного источника не было: 10 месяцев 24 дня

 
     
 
 
 
Автор Сообщение

Gater ®

Пол: Не указан

Стаж: 1 год 2 месяца

Сообщений: 1378

Создавать темы 17-Июл-2017 16:36

[Цитировать]

-Штамм / The Strain- Год выпуска • 2017
Страна • США
Жанр • Ужасы, драма
Продолжительность • ~50 мин.
Перевод
• Профессиональный (многоголосый, закадровый) "OMSKBIRD records"
-Создатель • Гильермо дель Торо, Чак Хоган
В ролях • Кори Столл, Дэвид Брэдли, Джим Уотсон, Кевин Дюран, Миа Маэстро, Бен Хайленд, Джонатан Хайд, Рихард Заммель, Мигель Гомес, Натали Браун и др.-Описание • В аэропорту Нью-Йорка экстренно приземляется самолет, полный мертвецов. Для выяснения обстоятельств их смерти на борт направляются ученые, возглавляемые лучшим городским эпидемиологом Эфраимом Гудвезером. В ходе исследований становится ясно, что пассажиры заражены вирусом вампиризма, который грозит перерасти в масштабную эпидемию, способную погубить все человечество.-ПереводНиколай Исаков
Роли озвучивалиДенис Строев, Павел Ярощик, Алексей Гнеушев, Маргарита Корш
ЗвукорежиссерПавел Квентов
ПостерКсения Просветова
Релиз подготовилGater-Реклама: аудио (два раза, в начале и конце, по 15 сек.)-
Качество: WEB-DLRip
Формат: AVI
Видео: Xvid / ~ 1800 kbps / 720х400p / 25.000 fps / 16:9
Аудио:
Русский / Dolby Digital 2.0 / 48 kHz / 192 kbps-
-

Скриншоты

-

MediaInfo


General
Complete name : F:\Мои Документы\Видео\РАЗДАЧИ\Штамм\The Strain S04 WEB-DLRip (OMSKBIRD)\The Strain S04E01 WEB-DLRip (OMSKBIRD).avi
Format : AVI
Format/Info : Audio Video Interleave
File size : 653 MiB
Duration : 46mn 5s
Overall bit rate : 1 982 Kbps
Writing application : VirtualDubMod 1.5.10.3 | www.virtualdub-fr.org || (build 2550/release)
Writing library : VirtualDubMod build 2550/release
Video
ID : 0
Format : MPEG-4 Visual
Format profile : Advanced Simple@L5
Format settings, BVOP : 2
Format settings, QPel : No
Format settings, GMC : No warppoints
Format settings, Matrix : Default (H.263)
Codec ID : XVID
Codec ID/Hint : XviD
Duration : 46mn 5s
Bit rate : 1 780 Kbps
Width : 720 pixels
Height : 400 pixels
Display aspect ratio : 16:9
Frame rate : 25.000 fps
Color space : YUV
Chroma subsampling : 4:2:0
Bit depth : 8 bits
Scan type : Progressive
Compression mode : Lossy
Bits/(Pixel*Frame) : 0.247
Stream size : 587 MiB (90%)
Writing library : XviD 1.2.1 (UTC 2008-12-04)
Audio
ID : 1
Format : AC-3
Format/Info : Audio Coding 3
Mode extension : CM (complete main)
Format settings, Endianness : Big
Codec ID : 2000
Duration : 46mn 5s
Bit rate mode : Constant
Bit rate : 192 Kbps
Channel(s) : 2 channels
Channel positions : Front: L R
Sampling rate : 48.0 KHz
Bit depth : 16 bits
Compression mode : Lossy
Stream size : 63.3 MiB (10%)
Alignment : Split accross interleaves
Interleave, duration : 40 ms (1.00 video frame)
Interleave, preload duration : 500 ms
[freetreker.nl].t23.torrent 
 ЗОЛОТАЯ РАЗДАЧА! СКАЧАННОЕ НЕ ЗАСЧИТЫВАЕТСЯ! 
Торрент: Зарегистрирован [ 2017-09-18 20:30 ] · E50CC249BF015EB89E4FD9F614FDC50E33C42E65

Скачать .torrent

Скачать

16 KB

Статус: проверено
Скачан: 0 раз
Размер: 6,01 GB
terms.php
Похожие темы:


Последний раз редактировалось: Gater (2017-09-18 20:30), всего редактировалось 8 раз(а)
[Профиль] [ЛС]

Gater ®

Пол: Не указан

Стаж: 1 год 2 месяца

Сообщений: 1378

Создавать темы 25-Июл-2017 11:56 (спустя 7 дней)

[Цитировать]

+2
[Профиль] [ЛС]

Gater ®

Пол: Не указан

Стаж: 1 год 2 месяца

Сообщений: 1378

Создавать темы 31-Июл-2017 17:43 (спустя 6 дней)

[Цитировать]

+3
[Профиль] [ЛС]

Gater ®

Пол: Не указан

Стаж: 1 год 2 месяца

Сообщений: 1378

Создавать темы 07-Авг-2017 20:11 (спустя 7 дней)

[Цитировать]

+4
[Профиль] [ЛС]

Gater ®

Пол: Не указан

Стаж: 1 год 2 месяца

Сообщений: 1378

Создавать темы 14-Авг-2017 16:50 (спустя 6 дней)

[Цитировать]

+5
[Профиль] [ЛС]

Gater ®

Пол: Не указан

Стаж: 1 год 2 месяца

Сообщений: 1378

Создавать темы 21-Авг-2017 17:00 (спустя 7 дней)

[Цитировать]

Добавлена 6-ая серия
[Профиль] [ЛС]

Gater ®

Пол: Не указан

Стаж: 1 год 2 месяца

Сообщений: 1378

Создавать темы 29-Авг-2017 11:27 (спустя 7 дней)

[Цитировать]

Добавлена 7-ая серия
[Профиль] [ЛС]

Gater ®

Пол: Не указан

Стаж: 1 год 2 месяца

Сообщений: 1378

Создавать темы 05-Сен-2017 07:57 (спустя 6 дней)

[Цитировать]

Добавлена 8-ая серия
[Профиль] [ЛС]

Gater ®

Пол: Не указан

Стаж: 1 год 2 месяца

Сообщений: 1378

Создавать темы 12-Сен-2017 09:49 (спустя 7 дней)

[Цитировать]

+9
[Профиль] [ЛС]

Gater ®

Пол: Не указан

Стаж: 1 год 2 месяца

Сообщений: 1378

Создавать темы 18-Сен-2017 20:30 (спустя 6 дней)

[Цитировать]

+10
Финал
[Профиль] [ЛС]
Показать сообщения:    
Ответить на тему

Текущее время: 23-Сен 14:50

Часовой пояс: UTC ± 0



Вы не можете начинать темы
Вы не можете отвечать на сообщения
Вы не можете редактировать свои сообщения
Вы не можете удалять свои сообщения
Вы не можете голосовать в опросах
Вы не можете прикреплять файлы к сообщениям
Вы можете скачивать файлы