Сын Зорна / Son of Zorn / Сезон 1 / Серии 1-13 (13) (Рид Эгнью) [2016, комедия, WEBRip 720p] MVO (OMSKBIRD)

Ответить на тему
Статистика раздачи
Размер:  6,72 GB   |    Зарегистрирован:  9 месяцев 23 дня   |    Скачан:  0 раз

Полного источника не было: Никогда

 
     
 
 
 
Автор Сообщение

Gater ®

Пол: Не указан

Стаж: 1 год 2 месяца

Сообщений: 1378

Создавать темы 29-Ноя-2017 19:39

[Цитировать]

-Сын Зорна / Son of Zorn- Год выпуска • 2016
Страна • США
Жанр • комедия
Продолжительность • ~22 мин.
Перевод
• Профессиональный (многоголосый, закадровый) "OMSKBIRD records"
-Создатель • Рид Эгнью
В ролях • Джонни Пембертон, Шерил Хайнс, Тим Медоуз, Артемис Пебдани, Джейсон Судейкис, Скотт Бинер, Боб Рамнок и др.-Описание • Представьте, что будет, если мужественный герой наподобие Хи-мена попадет в современный мир...
Сериал "Сын Зорна" расскажет нам о героическом стремлении воинственного Зорна стать хорошим отцом для своего сына Алангулона (которого чаще называют Аланом) и наладить отношения со своей бывшей возлюбленной и ее новым мужем.-
Качество: WEBRip 720p
Формат: MKV
Видео: AVC, 1280x720 (16:9), 23.976 fps, ~ 2100 kbps
Аудио:
Русский / Dolby Digital 2.0 / 48 kHz / 192 kbps-

Скриншоты

-

MediaInfo


General
Unique ID : 189318151342005904039497923375950388394 (0x8E6D5983E0F73DF78DE39F2E971EDCAA)
Complete name : F:Мои ДокументыВидеоРАЗДАЧИЗорнSon of Zorn S01 WEBRip 720 (OMSKBIRD)Son of Zorn S01E01 WEBRip 720 (OMSKBIRD).mkv
Format : Matroska
Format version : Version 2
File size : 480 MiB
Duration : 22mn 33s
Overall bit rate mode : Variable
Overall bit rate : 2 974 Kbps
Movie name : Son.of.Zorn.S01E01.Return.to.Orange.County.720p.AMZN.WEBRip.DD5.1.x264-CasStudio
Encoded date : UTC 2016-09-13 08:54:29
Writing application : mkvmerge v4.0.0 ('The Stars were mine') сборка от Jun 6 2010 16:18:42
Writing library : libebml v1.0.0 + libmatroska v1.0.0
Video
ID : 1
Format : AVC
Format/Info : Advanced Video Codec
Format profile : High@L3.1
Format settings, CABAC : Yes
Format settings, ReFrames : 5 frames
Codec ID : V_MPEG4/ISO/AVC
Duration : 22mn 33s
Bit rate mode : Variable
Bit rate : 2 146 Kbps
Maximum bit rate : 4 500 Kbps
Width : 1 280 pixels
Height : 720 pixels
Display aspect ratio : 16:9
Frame rate : 23.976 fps
Color space : YUV
Chroma subsampling : 4:2:0
Bit depth : 8 bits
Scan type : Progressive
Bits/(Pixel*Frame) : 0.097
Stream size : 346 MiB (72%)
Language : English
Default : No
Forced : No
Color primaries : BT.709-5, BT.1361, IEC 61966-2-4, SMPTE RP177
Transfer characteristics : BT.709-5, BT.1361
Matrix coefficients : BT.709-5, BT.1361, IEC 61966-2-4 709, SMPTE RP177
Audio #1
ID : 2
Format : AC-3
Format/Info : Audio Coding 3
Mode extension : CM (complete main)
Format settings, Endianness : Big
Codec ID : A_AC3
Duration : 22mn 33s
Bit rate mode : Constant
Bit rate : 384 Kbps
Channel(s) : 6 channels
Channel positions : Front: L C R, Side: L R, LFE
Sampling rate : 48.0 KHz
Bit depth : 16 bits
Compression mode : Lossy
Stream size : 62.0 MiB (13%)
Language : Russian
Default : Yes
Forced : No
Audio #2
ID : 3
Format : AC-3
Format/Info : Audio Coding 3
Mode extension : CM (complete main)
Format settings, Endianness : Big
Codec ID : A_AC3
Duration : 22mn 33s
Bit rate mode : Constant
Bit rate : 384 Kbps
Channel(s) : 6 channels
Channel positions : Front: L C R, Side: L R, LFE
Sampling rate : 48.0 KHz
Bit depth : 16 bits
Compression mode : Lossy
Stream size : 62.0 MiB (13%)
Language : English
Default : No
Forced : No
[freetreker.nl].t238.torrent 
Торрент: Зарегистрирован [ 2017-11-29 19:39 ] · 9D4DAD02CEAD649692642B7D880456B0E330B889

Скачать .torrent

Скачать

19 KB

Статус: проверено
Скачан: 0 раз
Размер: 6,72 GB
terms.php
Похожие темы:
[Профиль] [ЛС]
Показать сообщения:    
Ответить на тему

Текущее время: 23-Сен 13:49

Часовой пояс: UTC ± 0



Вы не можете начинать темы
Вы не можете отвечать на сообщения
Вы не можете редактировать свои сообщения
Вы не можете удалять свои сообщения
Вы не можете голосовать в опросах
Вы не можете прикреплять файлы к сообщениям
Вы можете скачивать файлы