Сын Зорна / Son of Zorn / Сезон 1 / Серии 1-13 (13) (Рид Эгнью) [2016, комедия, WEBRip] MVO (OMSKBIRD)

Ответить на тему
Статистика раздачи
Размер:  4,02 GB   |    Зарегистрирован:  9 месяцев 23 дня   |    Скачан:  0 раз

Полного источника не было: Никогда

 
     
 
 
 
Автор Сообщение

Gater ®

Пол: Не указан

Стаж: 1 год 2 месяца

Сообщений: 1378

Создавать темы 29-Ноя-2017 19:41

[Цитировать]

-Сын Зорна / Son of Zorn- Год выпуска • 2016
Страна • США
Жанр • комедия
Продолжительность • ~22 мин.
Перевод
• Профессиональный (многоголосый, закадровый) "OMSKBIRD records"
-Создатель • Рид Эгнью
В ролях • Джонни Пембертон, Шерил Хайнс, Тим Медоуз, Артемис Пебдани, Джейсон Судейкис, Скотт Бинер, Боб Рамнок и др.-Описание • Представьте, что будет, если мужественный герой наподобие Хи-мена попадет в современный мир...
Сериал "Сын Зорна" расскажет нам о героическом стремлении воинственного Зорна стать хорошим отцом для своего сына Алангулона (которого чаще называют Аланом) и наладить отношения со своей бывшей возлюбленной и ее новым мужем.-
Качество: WEBRip
Формат: AVI
Видео: 720x400 (16:9), 23.976 fps, ~ 1500 kbps
Аудио:
Русский / Dolby Digital 2.0 / 48 kHz / 192 kbps-

Скриншоты

-

MediaInfo


General
Complete name : F:Мои ДокументыВидеоРАЗДАЧИЗорнSon of Zorn S01 WEBRip (OMSKBIRD)Son of Zorn S01E04 HDTVRip (OMSKBIRD).avi
Format : AVI
Format/Info : Audio Video Interleave
File size : 291 MiB
Duration : 21mn 26s
Overall bit rate : 1 897 Kbps
Writing application : VirtualDubMod 1.5.10.3 | www.virtualdub-fr.org || (build 2550/release)
Writing library : VirtualDubMod build 2550/release
Video
ID : 0
Format : MPEG-4 Visual
Format profile : Advanced Simple@L5
Format settings, BVOP : 2
Format settings, QPel : No
Format settings, GMC : No warppoints
Format settings, Matrix : Default (MPEG)
Codec ID : XVID
Codec ID/Hint : XviD
Duration : 21mn 26s
Bit rate : 1 499 Kbps
Width : 720 pixels
Height : 400 pixels
Display aspect ratio : 16:9
Frame rate : 23.976 fps
Color space : YUV
Chroma subsampling : 4:2:0
Bit depth : 8 bits
Scan type : Progressive
Compression mode : Lossy
Bits/(Pixel*Frame) : 0.217
Stream size : 230 MiB (79%)
Writing library : XviD 1.2.1 (UTC 2008-12-04)
Audio #1
ID : 1
Format : AC-3
Format/Info : Audio Coding 3
Mode extension : CM (complete main)
Format settings, Endianness : Big
Codec ID : 2000
Duration : 21mn 26s
Bit rate mode : Constant
Bit rate : 192 Kbps
Channel(s) : 2 channels
Channel positions : Front: L R
Sampling rate : 48.0 KHz
Bit depth : 16 bits
Compression mode : Lossy
Stream size : 29.5 MiB (10%)
Alignment : Split accross interleaves
Interleave, duration : 42 ms (1.00 video frame)
Interleave, preload duration : 500 ms
Audio #2
ID : 2
Format : AC-3
Format/Info : Audio Coding 3
Mode extension : CM (complete main)
Format settings, Endianness : Big
Codec ID : 2000
Duration : 21mn 26s
Bit rate mode : Constant
Bit rate : 192 Kbps
Channel(s) : 2 channels
Channel positions : Front: L R
Sampling rate : 48.0 KHz
Bit depth : 16 bits
Compression mode : Lossy
Stream size : 29.5 MiB (10%)
Alignment : Split accross interleaves
Interleave, duration : 42 ms (1.00 video frame)
Interleave, preload duration : 500 ms
[freetreker.nl].t239.torrent 
Торрент: Зарегистрирован [ 2017-11-29 19:41 ] · 37D10EA081878178B1B944B581F1DE4698878926

Скачать .torrent

Скачать

12 KB

Статус: проверено
Скачан: 0 раз
Размер: 4,02 GB
terms.php
Похожие темы:
[Профиль] [ЛС]
Показать сообщения:    
Ответить на тему

Текущее время: 23-Сен 14:13

Часовой пояс: UTC ± 0



Вы не можете начинать темы
Вы не можете отвечать на сообщения
Вы не можете редактировать свои сообщения
Вы не можете удалять свои сообщения
Вы не можете голосовать в опросах
Вы не можете прикреплять файлы к сообщениям
Вы можете скачивать файлы