Изумрудный город / Emerald City / Сезон 1 / Серии 1-10 (10) (Тарсем Сингх) [2017,США, фэнтези, WEB-DLRip] MVO (OMSKBIRD)

Ответить на тему
Статистика раздачи
Размер:  6 GB   |    Зарегистрирован:  1 год   |    Скачан:  0 раз

Полного источника не было: Никогда

 
     
 
 
 
Автор Сообщение

Gater ®

Пол: Не указан

Стаж: 1 год 5 месяцев

Сообщений: 1558

Создавать темы 30-Ноя-2017 18:27

[Цитировать]

-Изумрудный город / Emerald City- Год выпуска • 2017
Страна • США
Жанр • фэнтези
Продолжительность • ~60 мин.
Перевод
• Профессиональный (многоголосый, закадровый) "OMSKBIRD records"
-Создатель • Тарсем Сингх
В ролях • Герран Хауэлл, Адриа Архона, Винсент Д’Онофрио, Оливер Джексон-Коэн, Изабель Лукас, Стефани Мартини, Ана Улару, Рокси Штернберг, Ребека Ри, Оулавюр Дарри Оулафссон и др.-Описание • В мгновение ока, торнадо уносит 20-летнюю Дороти Гейл и её полицейскую собаку в мир, далекий от нашего — мистическую землю, охваченную кровавой войной между конкурирующими королевствами, в страну Оз. Дороти попадает в этот опасный мир и раскрывает свою истинную судьбу.-
Качество: WEBRip
Формат: AVI
Видео: Xvid / ~ 1800 kbps / 720:400p / 23.976 fps / 16:9
Аудио:
Русский / Dolby Digital 2.0 / 48 kHz / 192 kbps-

Скриншоты

-

MediaInfo


General
Complete name : F:Мои ДокументыВидеоРАЗДАЧИИГИзумрудEmerald City S01 WEB-DLRip (OMSKBIRD)Emerald City S01E01 WEB-DLRip (OMSKBIRD).avi
Format : AVI
Format/Info : Audio Video Interleave
File size : 635 MiB
Duration : 40mn 51s
Overall bit rate : 2 172 Kbps
Writing application : VirtualDubMod 1.5.10.3 | www.virtualdub-fr.org || (build 2550/release)
Writing library : VirtualDubMod build 2550/release
Video
ID : 0
Format : MPEG-4 Visual
Format profile : Advanced [email protected]
Format settings, BVOP : 2
Format settings, QPel : No
Format settings, GMC : No warppoints
Format settings, Matrix : Default (MPEG)
Codec ID : XVID
Codec ID/Hint : XviD
Duration : 40mn 51s
Bit rate : 1 971 Kbps
Width : 720 pixels
Height : 400 pixels
Display aspect ratio : 16:9
Frame rate : 23.976 fps
Color space : YUV
Chroma subsampling : 4:2:0
Bit depth : 8 bits
Scan type : Progressive
Compression mode : Lossy
Bits/(Pixel*Frame) : 0.285
Stream size : 576 MiB (91%)
Writing library : XviD 1.2.1 (UTC 2008-12-04)
Audio
ID : 1
Format : AC-3
Format/Info : Audio Coding 3
Mode extension : CM (complete main)
Format settings, Endianness : Big
Codec ID : 2000
Duration : 40mn 51s
Bit rate mode : Constant
Bit rate : 192 Kbps
Channel(s) : 2 channels
Channel positions : Front: L R
Sampling rate : 48.0 KHz
Bit depth : 16 bits
Compression mode : Lossy
Stream size : 56.1 MiB (9%)
Alignment : Split accross interleaves
Interleave, duration : 42 ms (1.00 video frame)
Interleave, preload duration : 500 ms
[freetreker.nl].t247.torrent 
Торрент: Зарегистрирован [ 2017-11-30 18:27 ] · 14FCD4969AAC25C709534D78E3A6B39F73800B2D

Скачать .torrent

Скачать

17 KB

Статус: проверено
Скачан: 0 раз
Размер: 6 GB
terms.php
Похожие темы:
[Профиль] [ЛС]
Показать сообщения:    
Ответить на тему

Текущее время: 13-Дек 22:48

Часовой пояс: UTC ± 0



Вы не можете начинать темы
Вы не можете отвечать на сообщения
Вы не можете редактировать свои сообщения
Вы не можете удалять свои сообщения
Вы не можете голосовать в опросах
Вы не можете прикреплять файлы к сообщениям
Вы можете скачивать файлы