Шесть / Six / Сезон 1 / Серии 1-8 (8) (Лесли Линка Глаттер) [2017,США, боевик, драма, WEB-DL 720p] MVO (OMSKBIRD)

Ответить на тему
Статистика раздачи
Размер:  11,57 GB   |    Зарегистрирован:  7 месяцев 19 дней   |    Скачан:  0 раз

Полного источника не было: Никогда

 
     
 
 
 
Автор Сообщение

Gater ®

Пол: Не указан

Стаж: 1 год

Сообщений: 1152

Создавать темы 30-Ноя-2017 18:33

[Цитировать]

-Шесть / Six- Год выпуска • 2017
Страна • США
Жанр • боевик, драма
Продолжительность • ~60 мин.
Перевод
• Профессиональный (многоголосый, закадровый) "OMSKBIRD records"
-Создатель • Лесли Линка Глаттер
В ролях • Бэрри Слоун, Кайл Шмид, Хуан Пабло Раба, Эдвин Ходж, Брианна Дэвис, Надин Веласкес, Доминик Адамс, Уолтон Гоггинс и др.-Описание • "Шесть" расскажет о буднях элитного подразделения «морских котиков» под названием «Команда 6». Лучшие из лучших, эти члены воинского братства принимали участие в самых сложных миссиях, включая физическое устранение лидера «Аль-Каиды» Усамы бен Ладена. Вдохновленный реальными операциями «Команды 6» сериал исследует характер и судьбу своих героев, которым по несколько раз на дню приходится решать вопросы жизни и смерти.-
Качество: WEB-DL 720p
Формат: MKV
Видео: MPEG-4 AVC / ~ 4000 kbps / 1280:720p / 23.976 fps / 16:9
Аудио:
Русский / Dolby Digital 2.0 / 48 kHz / 192 kbps
English
/ Dolby Digital 2.0 / 48 kHz / 192 kbps
-

Скриншоты

-

MediaInfo


General
Unique ID : 236217637014184734865195668356141878862 (0xB1B5DCAF6D46127D8FDBD5EDDD430E4E)
Complete name : F:Мои ДокументыВидеоРАЗДАЧИ6Six S01 WEB-DL 720p (OMSKBIRD)Six S01E01 WEB-DL 720p (OMSKBIRD).mkv
Format : Matroska
Format version : Version 2
File size : 1.28 GiB
Duration : 41mn 4s
Overall bit rate : 4 462 Kbps
Movie name : Six.S01E01.720p.WEB-DL.AAC2.0.H.264-RARBG
Encoded date : UTC 2017-01-21 09:20:01
Writing application : mkvmerge v4.0.0 ('The Stars were mine') сборка от Jun 6 2010 16:18:42
Writing library : libebml v1.0.0 + libmatroska v1.0.0
Video
ID : 1
Format : AVC
Format/Info : Advanced Video Codec
Format profile : High@L3.1
Format settings, CABAC : No
Format settings, ReFrames : 2 frames
Codec ID : V_MPEG4/ISO/AVC
Duration : 41mn 4s
Bit rate : 3 989 Kbps
Width : 1 280 pixels
Height : 716 pixels
Display aspect ratio : 16:9
Frame rate : 23.976 fps
Color space : YUV
Chroma subsampling : 4:2:0
Bit depth : 8 bits
Scan type : Progressive
Bits/(Pixel*Frame) : 0.182
Stream size : 1.14 GiB (89%)
Title : Six.S01E01.720p.WEB-DL.AAC2.0.H.264-RARBG
Language : English
Default : No
Forced : No
Color primaries : BT.709-5, BT.1361, IEC 61966-2-4, SMPTE RP177
Transfer characteristics : BT.709-5, BT.1361
Matrix coefficients : BT.709-5, BT.1361, IEC 61966-2-4 709, SMPTE RP177
Audio #1
ID : 2
Format : AC-3
Format/Info : Audio Coding 3
Mode extension : CM (complete main)
Format settings, Endianness : Big
Codec ID : A_AC3
Duration : 41mn 4s
Bit rate mode : Constant
Bit rate : 192 Kbps
Channel(s) : 2 channels
Channel positions : Front: L R
Sampling rate : 48.0 KHz
Bit depth : 16 bits
Compression mode : Lossy
Stream size : 56.4 MiB (4%)
Language : Russian
Default : Yes
Forced : No
Audio #2
ID : 3
Format : AC-3
Format/Info : Audio Coding 3
Mode extension : CM (complete main)
Format settings, Endianness : Big
Codec ID : A_AC3
Duration : 41mn 4s
Bit rate mode : Constant
Bit rate : 192 Kbps
Channel(s) : 2 channels
Channel positions : Front: L R
Sampling rate : 48.0 KHz
Bit depth : 16 bits
Compression mode : Lossy
Stream size : 56.4 MiB (4%)
Language : English
Default : No
Forced : No
[freetreker.nl].t248.torrent 
Торрент: Зарегистрирован [ 2017-11-30 18:33 ] · E90C0157781E6445E33D59BC2E37D38BFE14C32D

Скачать .torrent

Скачать

31 KB

Статус: проверено
Скачан: 0 раз
Размер: 11,57 GB
terms.php
Похожие темы:
[Профиль] [ЛС]
Показать сообщения:    
Ответить на тему

Текущее время: 19-Июл 19:32

Часовой пояс: UTC ± 0



Вы не можете начинать темы
Вы не можете отвечать на сообщения
Вы не можете редактировать свои сообщения
Вы не можете удалять свои сообщения
Вы не можете голосовать в опросах
Вы не можете прикреплять файлы к сообщениям
Вы можете скачивать файлы