Штамм / The Strain / Сезон 4 / Серии 1-10 (10) (Гильермо дель Торо, Чак Хоган) [2017, США, ужасы, драма, WEB-DL 1080p] MVO (OMSKBIRD)

Ответить на тему
Статистика раздачи
Размер:  23,09 GB   |    Зарегистрирован:  7 месяцев 2 дня   |    Скачан:  2 раза

Полного источника не было: 5 месяцев 23 дня

 
     
 
 
 
Автор Сообщение

Gater ®

Пол: Не указан

Стаж: 9 месяцев 11 дней

Сообщений: 948

Создавать темы 18-Июл-2017 11:45

[Цитировать]

-Штамм / The Strain- Год выпуска • 2017
Страна • США
Жанр • Ужасы, драма
Продолжительность • ~50 мин.
Перевод
• Профессиональный (многоголосый, закадровый) "OMSKBIRD records"
-Создатель • Гильермо дель Торо, Чак Хоган
В ролях • Кори Столл, Дэвид Брэдли, Джим Уотсон, Кевин Дюран, Миа Маэстро, Бен Хайленд, Джонатан Хайд, Рихард Заммель, Мигель Гомес, Натали Браун и др.-Описание • В аэропорту Нью-Йорка экстренно приземляется самолет, полный мертвецов. Для выяснения обстоятельств их смерти на борт направляются ученые, возглавляемые лучшим городским эпидемиологом Эфраимом Гудвезером. В ходе исследований становится ясно, что пассажиры заражены вирусом вампиризма, который грозит перерасти в масштабную эпидемию, способную погубить все человечество.-ПереводНиколай Исаков
Роли озвучивалиДенис Строев, Павел Ярощик, Алексей Гнеушев, Маргарита Корш
ЗвукорежиссерПавел Квентов
ПостерКсения Просветова
Релиз подготовилGater-Реклама: аудио (два раза, в начале и конце, по 15 сек.)-
Качество: iTunes WEB-DL 1080p
Формат: MKV
Видео: MPEG-4 AVC / ~ 5000 kbps / 1920х1080p / 23.976 fps / 16:9 / ~ 0.103 bit/pixel / High Level 4.0
Аудио:
Русский / Dolby Digital 5.1 / 48 kHz / 384 kbps
English / Dolby Digital 5.1 / 48 kHz / 384 kbps
Субтитры: Eng-
- -

MediaInfo


General
Unique ID : 194434505293499028968873070481020078316 (0x9246B93DA1E96DC499600B01F3B4C8EC)
Complete name : F:\Мои Документы\Видео\РАЗДАЧИ\Штамм\The Strain S04 WEBRip 1080p (OMSKBIRD)\The Strain S04E02 WEB-DL 1080p (OMSKBIRD).mkv
Format : Matroska
Format version : Version 2
File size : 1.74 GiB
Duration : 42mn 41s
Overall bit rate : 5 844 Kbps
Encoded date : UTC 2017-07-30 15:40:51
Writing application : mkvmerge v4.0.0 ('The Stars were mine') сборка от Jun 6 2010 16:18:42
Writing library : libebml v1.0.0 + libmatroska v1.0.0
Video
ID : 1
Format : AVC
Format/Info : Advanced Video Codec
Format profile : High@L4.0
Format settings, CABAC : Yes
Format settings, ReFrames : 4 frames
Codec ID : V_MPEG4/ISO/AVC
Duration : 42mn 41s
Bit rate : 4 960 Kbps
Width : 1 920 pixels
Height : 1 080 pixels
Display aspect ratio : 16:9
Frame rate : 23.976 fps
Color space : YUV
Chroma subsampling : 4:2:0
Bit depth : 8 bits
Scan type : Progressive
Bits/(Pixel*Frame) : 0.100
Stream size : 1.48 GiB (85%)
Language : English
Default : No
Forced : No
Color primaries : BT.709-5, BT.1361, IEC 61966-2-4, SMPTE RP177
Transfer characteristics : BT.709-5, BT.1361
Matrix coefficients : BT.709-5, BT.1361, IEC 61966-2-4 709, SMPTE RP177
Audio #1
ID : 2
Format : AC-3
Format/Info : Audio Coding 3
Mode extension : CM (complete main)
Format settings, Endianness : Big
Codec ID : A_AC3
Duration : 42mn 41s
Bit rate mode : Constant
Bit rate : 384 Kbps
Channel(s) : 6 channels
Channel positions : Front: L C R, Side: L R, LFE
Sampling rate : 48.0 KHz
Bit depth : 16 bits
Compression mode : Lossy
Delay relative to video : 7ms
Stream size : 117 MiB (7%)
Language : Russian
Default : Yes
Forced : No
Audio #2
ID : 3
Format : AC-3
Format/Info : Audio Coding 3
Mode extension : CM (complete main)
Format settings, Endianness : Big
Codec ID : A_AC3
Duration : 42mn 41s
Bit rate mode : Constant
Bit rate : 384 Kbps
Channel(s) : 6 channels
Channel positions : Front: L C R, Side: L R, LFE
Sampling rate : 48.0 KHz
Bit depth : 16 bits
Compression mode : Lossy
Delay relative to video : 7ms
Stream size : 117 MiB (7%)
Language : English
Default : No
Forced : No
Text
ID : 4
Format : UTF-8
Codec ID : S_TEXT/UTF8
Codec ID/Info : UTF-8 Plain Text
Language : English
Default : No
Forced : No
[freetreker.nl].t25.torrent 
 ЗОЛОТАЯ РАЗДАЧА! СКАЧАННОЕ НЕ ЗАСЧИТЫВАЕТСЯ! 
Торрент: Зарегистрирован [ 2017-09-18 20:29 ] · 3FBC197971ECA9B4C1AC197B09A04BBF0FA819E9

Скачать .torrent

Скачать

59 KB

Статус: проверено
Скачан: 2 раз
Размер: 23,09 GB
terms.php
Похожие темы:


Последний раз редактировалось: Gater (2017-09-18 20:29), всего редактировалось 9 раз(а)
[Профиль] [ЛС]

Gater ®

Пол: Не указан

Стаж: 9 месяцев 11 дней

Сообщений: 948

Создавать темы 25-Июл-2017 11:54 (спустя 7 дней)

[Цитировать]

+2
[Профиль] [ЛС]

Gater ®

Пол: Не указан

Стаж: 9 месяцев 11 дней

Сообщений: 948

Создавать темы 31-Июл-2017 17:45 (спустя 6 дней)

[Цитировать]

+3
[Профиль] [ЛС]

Gater ®

Пол: Не указан

Стаж: 9 месяцев 11 дней

Сообщений: 948

Создавать темы 07-Авг-2017 20:11 (спустя 7 дней)

[Цитировать]

+4
[Профиль] [ЛС]

Gater ®

Пол: Не указан

Стаж: 9 месяцев 11 дней

Сообщений: 948

Создавать темы 14-Авг-2017 16:50 (спустя 6 дней)

[Цитировать]

+5
[Профиль] [ЛС]

Gater ®

Пол: Не указан

Стаж: 9 месяцев 11 дней

Сообщений: 948

Создавать темы 21-Авг-2017 16:59 (спустя 7 дней)

[Цитировать]

Добавлена 6-ая серия
[Профиль] [ЛС]

Gater ®

Пол: Не указан

Стаж: 9 месяцев 11 дней

Сообщений: 948

Создавать темы 29-Авг-2017 11:26 (спустя 7 дней)

[Цитировать]

Добавлена 7-ая серия
[Профиль] [ЛС]

Gater ®

Пол: Не указан

Стаж: 9 месяцев 11 дней

Сообщений: 948

Создавать темы 05-Сен-2017 07:44 (спустя 6 дней)

[Цитировать]

+8
[Профиль] [ЛС]

Gater ®

Пол: Не указан

Стаж: 9 месяцев 11 дней

Сообщений: 948

Создавать темы 12-Сен-2017 09:47 (спустя 7 дней)

[Цитировать]

+9
[Профиль] [ЛС]

Gater ®

Пол: Не указан

Стаж: 9 месяцев 11 дней

Сообщений: 948

Создавать темы 18-Сен-2017 20:31 (спустя 6 дней)

[Цитировать]

+10
Финал
[Профиль] [ЛС]
Показать сообщения:    
Ответить на тему

Текущее время: 21-Апр 00:04

Часовой пояс: UTC ± 0



Вы не можете начинать темы
Вы не можете отвечать на сообщения
Вы не можете редактировать свои сообщения
Вы не можете удалять свои сообщения
Вы не можете голосовать в опросах
Вы не можете прикреплять файлы к сообщениям
Вы можете скачивать файлы