Лёд / Ice / Сезон 1 / Серии 1-10 (10) (Эшли Вэй) [2016, США, криминал, HDTVrip 720p] MVO (OMSKBIRD)

Ответить на тему
Статистика раздачи
Размер:  11,7 GB   |    Зарегистрирован:  9 месяцев 18 дней   |    Скачан:  0 раз

Полного источника не было: 9 месяцев 16 дней

 
     
 
 
 
Автор Сообщение

Gater ®

Пол: Не указан

Стаж: 1 год 2 месяца

Сообщений: 1375

Создавать темы 30-Ноя-2017 18:42

[Цитировать]

-Лёд / Ice- Год выпуска • 2016
Страна • США
Жанр • криминал
Продолжительность • ~44 мин.
Перевод
• Профессиональный (многоголосый, закадровый) "OMSKBIRD records"
-Создатель • Эшли Вэй, Антуан Фукуа, Т.Дж. Скотт
В ролях • Кэм Жиганде, Джереми Систо, Рэй Уинстон, Джудит Шекони, Хлоя Ист, Одри Мари Андерсон, Элла Томас, Константин Лавиш, Дональд Сазерленд, Рэймонд Дж. Бэрри и др.-Описание • В центре истории — единокровные братья Джейк и Фредди, сыновья Айзека Грина, патриарха семьи-владелицы компании G&G Diamonds, занимающейся торговлей алмазами, в том числе и на чёрном рынке Лос-Анджелеса. Когда Фредди по случайности убивает известного торговца бриллиантами, Джейку предстоит спасти от верной смерти брата и семейный бизнес. На пути к цели главному герою предстоит столкнуться с головорезами, грязными сделками, поддельными сертификатами и сотрудниками ФБР.-
Качество: HDTVrip 720p
Формат: MKV
Видео: MPEG-4 AVC / ~ 3000 kbps / 1280:720p / 25.000 fps / 16:9
Аудио:
Русский / Dolby Digital 2.0 / 48 kHz / 192 kbps-

Скриншоты

-

MediaInfo


General
Unique ID : 221269239427719943326419719840498453327 (0xA676E7C83343ECECB11976A0BDD00B4F)
Complete name : F:Мои ДокументыВидеоРАЗДАЧИАйсIce S01 HDTVrip 720p (OMSKBIRD)Ice S01E01 HDTVrip 720p (OMSKBIRD).mkv
Format : Matroska
Format version : Version 2
File size : 1.69 GiB
Duration : 1h 16mn
Overall bit rate : 3 158 Kbps
Encoded date : UTC 2017-01-13 20:59:34
Writing application : mkvmerge v4.0.0 ('The Stars were mine') сборка от Jun 6 2010 16:18:42
Writing library : libebml v1.0.0 + libmatroska v1.0.0
Video
ID : 1
Format : AVC
Format/Info : Advanced Video Codec
Format profile : Main@L3.2
Format settings, CABAC : Yes
Format settings, ReFrames : 3 frames
Codec ID : V_MPEG4/ISO/AVC
Duration : 1h 16mn
Bit rate : 2 903 Kbps
Width : 1 280 pixels
Height : 720 pixels
Display aspect ratio : 16:9
Frame rate : 23.976 fps
Standard : PAL
Color space : YUV
Chroma subsampling : 4:2:0
Bit depth : 8 bits
Scan type : Progressive
Bits/(Pixel*Frame) : 0.131
Stream size : 1.55 GiB (92%)
Language : English
Default : Yes
Forced : No
Color primaries : BT.709-5, BT.1361, IEC 61966-2-4, SMPTE RP177
Transfer characteristics : BT.709-5, BT.1361
Matrix coefficients : BT.709-5, BT.1361, IEC 61966-2-4 709, SMPTE RP177
Audio
ID : 2
Format : AC-3
Format/Info : Audio Coding 3
Mode extension : CM (complete main)
Format settings, Endianness : Big
Codec ID : A_AC3
Duration : 1h 16mn
Bit rate mode : Constant
Bit rate : 192 Kbps
Channel(s) : 2 channels
Channel positions : Front: L R
Sampling rate : 48.0 KHz
Bit depth : 16 bits
Compression mode : Lossy
Stream size : 105 MiB (6%)
Default : Yes
Forced : No
[freetreker.nl].t250.torrent 
Торрент: Зарегистрирован [ 2017-11-30 18:42 ] · DD6B07239524D7519E705E762FBBE82F4E8ABBBC

Скачать .torrent

Скачать

31 KB

Статус: проверено
Скачан: 0 раз
Размер: 11,7 GB
terms.php
Похожие темы:
[Профиль] [ЛС]
Показать сообщения:    
Ответить на тему

Текущее время: 19-Сен 14:25

Часовой пояс: UTC ± 0



Вы не можете начинать темы
Вы не можете отвечать на сообщения
Вы не можете редактировать свои сообщения
Вы не можете удалять свои сообщения
Вы не можете голосовать в опросах
Вы не можете прикреплять файлы к сообщениям
Вы можете скачивать файлы