Лёд / Ice / Сезон 1 / Серии 1-10 (10) (Эшли Вэй) [2016, США, криминал, HDTVrip] MVO (OMSKBIRD)

Ответить на тему
Статистика раздачи
Размер:  7,24 GB   |    Зарегистрирован:  1 год   |    Скачан:  0 раз

Полного источника не было: Никогда

 
     
 
 
 
Автор Сообщение

Gater ®

Пол: Не указан

Стаж: 1 год 5 месяцев

Сообщений: 1555

Создавать темы 30-Ноя-2017 18:43

[Цитировать]

-Лёд / Ice- Год выпуска • 2016
Страна • США
Жанр • криминал
Продолжительность • ~44 мин.
Перевод
• Профессиональный (многоголосый, закадровый) "OMSKBIRD records"
-Создатель • Эшли Вэй, Антуан Фукуа, Т.Дж. Скотт
В ролях • Кэм Жиганде, Джереми Систо, Рэй Уинстон, Джудит Шекони, Хлоя Ист, Одри Мари Андерсон, Элла Томас, Константин Лавиш, Дональд Сазерленд, Рэймонд Дж. Бэрри и др.-Описание • В центре истории — единокровные братья Джейк и Фредди, сыновья Айзека Грина, патриарха семьи-владелицы компании G&G Diamonds, занимающейся торговлей алмазами, в том числе и на чёрном рынке Лос-Анджелеса. Когда Фредди по случайности убивает известного торговца бриллиантами, Джейку предстоит спасти от верной смерти брата и семейный бизнес. На пути к цели главному герою предстоит столкнуться с головорезами, грязными сделками, поддельными сертификатами и сотрудниками ФБР.-
Качество: HDTVrip
Формат: AVI
Видео: Xvid / ~ 1800 kbps / 720:400p / 25.000 fps / 16:9
Аудио:
Русский / Dolby Digital 2.0 / 48 kHz / 192 kbps-

Скриншоты

-

MediaInfo


General
Complete name : F:Мои ДокументыВидеоРАЗДАЧИАйсIce S01 HDTVrip (OMSKBIRD)Ice S01E01 HDTVrip (OMSKBIRD).avi
Format : AVI
Format/Info : Audio Video Interleave
File size : 1.06 GiB
Duration : 1h 16mn
Overall bit rate : 1 981 Kbps
Writing application : VirtualDubMod 1.5.10.3 | www.virtualdub-fr.org || (build 2550/release)
Writing library : VirtualDubMod build 2550/release
Video
ID : 0
Format : MPEG-4 Visual
Format profile : Advanced [email protected]
Format settings, BVOP : 2
Format settings, QPel : No
Format settings, GMC : No warppoints
Format settings, Matrix : Default (MPEG)
Codec ID : XVID
Codec ID/Hint : XviD
Duration : 1h 16mn
Bit rate : 1 780 Kbps
Width : 720 pixels
Height : 400 pixels
Display aspect ratio : 16:9
Frame rate : 23.976 fps
Color space : YUV
Chroma subsampling : 4:2:0
Bit depth : 8 bits
Scan type : Progressive
Compression mode : Lossy
Bits/(Pixel*Frame) : 0.258
Stream size : 973 MiB (90%)
Writing library : XviD 1.2.1 (UTC 2008-12-04)
Audio
ID : 1
Format : AC-3
Format/Info : Audio Coding 3
Mode extension : CM (complete main)
Format settings, Endianness : Big
Codec ID : 2000
Duration : 1h 16mn
Bit rate mode : Constant
Bit rate : 192 Kbps
Channel(s) : 2 channels
Channel positions : Front: L R
Sampling rate : 48.0 KHz
Bit depth : 16 bits
Compression mode : Lossy
Stream size : 105 MiB (10%)
Alignment : Split accross interleaves
Interleave, duration : 42 ms (1.00 video frame)
Interleave, preload duration : 500 ms
[freetreker.nl].t251.torrent 
Торрент: Зарегистрирован [ 2017-11-30 18:43 ] · D3CAD50E7D786FADBA09CA0B2B425234DE2AB6CB

Скачать .torrent

Скачать

20 KB

Статус: проверено
Скачан: 0 раз
Размер: 7,24 GB
terms.php
Похожие темы:
[Профиль] [ЛС]
Показать сообщения:    
Ответить на тему

Текущее время: 12-Дек 07:18

Часовой пояс: UTC ± 0



Вы не можете начинать темы
Вы не можете отвечать на сообщения
Вы не можете редактировать свои сообщения
Вы не можете удалять свои сообщения
Вы не можете голосовать в опросах
Вы не можете прикреплять файлы к сообщениям
Вы можете скачивать файлы