Гриффины / Family Guy / Сезон 15 / Серии 1-20 (20) (Сет МакФарлейн / Seth MacFarlane) [2016, Ситком, комедия, пародия, WEB-DL 720p] MVO (OMSKBIRD)

Ответить на тему
Статистика раздачи
Размер:  11,52 GB   |    Зарегистрирован:  1 год   |    Скачан:  0 раз

Полного источника не было: 11 месяцев 14 дней

 
     
 
 
 
Автор Сообщение

Gater ®

Пол: Не указан

Стаж: 1 год 5 месяцев

Сообщений: 1582

Создавать темы 05-Дек-2017 11:09

[Цитировать]

- Гриффины / Family Guy- Год выпуска • 2016
Страна • США
Жанр • Ситком, чёрный юмор, буффонада, комедия, пародия
Продолжительность • ~22 мин.
Перевод
• Профессиональный (многоголосый, закадровый) "OMSKBIRD records"
-Режиссёр • Сет МакФарлейн / Seth MacFarlane
Роли озвучивали: • Сет МакФарлейн, Алекс Борштейн, Сет Грин, Мила Кунис, Майк Генри и другие.-Описание • "Гриффины" (Family Guy) - анимационное ТВ-Шоу, созданное Сетом МакФарлейном (Seth MacFarlane) для телеканала FOX. Как нетрудно догадаться, главными героями шоу является семейка Гриффинов: тупой, но полный сумашедших идей, составляющих львиную долю шуток сериала, отец семейства Питер; его любящя и терпеливая жена Лойс, всеми силами пытающаяся превратить Гриффинов в нормальную семью; их интеллектуально развитый не по годам, вынашивающий идею мирового господства младший сын Стьюи; дочь-ботаник, обречённая из-за этого на одиночество и непонимание как в школе так и дома, Мэг; и 13-ти летний отсталый в развитии лет на 10, сын Крис. Также полноценным членом семьи является пёс Брайн - склонный к меланхолии эстет, спокойно наблюдающий с бокалом вина в лапе над приключениями Питера и остальных членов семьи (и это при всём притом, что остальные собаки в сериале не являются очеловеченными).-Реклама: Присутствует.-
Качество: WEB-DL 720p
Формат: MKV
Видео: MPEG-4 AVC / ~ 4000 kbps / 1280:720p / 23.976 fps / 16:9
Аудио:
Русский / Dolby Digital 2.0 / 48 kHz / 192 kbps
English / Dolby Digital 5.1 / 48 kHz / 384 kbps-
- -

MediaInfo


General
Unique ID : 195483023136668480356743108851233483525 (0x9310A92964131D6FA3411BEB72486B05)
Complete name : F:Мои ДокументыВидеоРАЗДАЧИГриффиныFamily Guy S15 WEB-DL 720p (OMSKBIRD)Family Guy S15E01 WEB-DL 720p (OMSKBIRD).mkv
Format : Matroska
Format version : Version 2
File size : 595 MiB
Duration : 21mn 35s
Overall bit rate : 3 855 Kbps
Encoded date : UTC 2016-09-27 20:35:23
Writing application : mkvmerge v4.0.0 ('The Stars were mine') сборка от Jun 6 2010 16:18:42
Writing library : libebml v1.0.0 + libmatroska v1.0.0
Video
ID : 1
Format : AVC
Format/Info : Advanced Video Codec
Format profile : [email protected]
Format settings, CABAC : No
Format settings, ReFrames : 2 frames
Codec ID : V_MPEG4/ISO/AVC
Duration : 21mn 35s
Bit rate : 3 202 Kbps
Width : 1 280 pixels
Height : 720 pixels
Display aspect ratio : 16:9
Frame rate : 23.976 fps
Color space : YUV
Chroma subsampling : 4:2:0
Bit depth : 8 bits
Scan type : Progressive
Bits/(Pixel*Frame) : 0.145
Stream size : 495 MiB (83%)
Language : English
Default : No
Forced : No
Color primaries : BT.709-5, BT.1361, IEC 61966-2-4, SMPTE RP177
Transfer characteristics : BT.709-5, BT.1361
Matrix coefficients : BT.709-5, BT.1361, IEC 61966-2-4 709, SMPTE RP177
Audio #1
ID : 2
Format : AC-3
Format/Info : Audio Coding 3
Mode extension : CM (complete main)
Format settings, Endianness : Big
Codec ID : A_AC3
Duration : 21mn 35s
Bit rate mode : Constant
Bit rate : 192 Kbps
Channel(s) : 2 channels
Channel positions : Front: L R
Sampling rate : 48.0 KHz
Bit depth : 16 bits
Compression mode : Lossy
Stream size : 29.7 MiB (5%)
Language : Russian
Default : Yes
Forced : No
Audio #2
ID : 3
Format : AC-3
Format/Info : Audio Coding 3
Mode extension : CM (complete main)
Format settings, Endianness : Big
Codec ID : A_AC3
Duration : 21mn 35s
Bit rate mode : Constant
Bit rate : 384 Kbps
Channel(s) : 6 channels
Channel positions : Front: L C R, Side: L R, LFE
Sampling rate : 48.0 KHz
Bit depth : 16 bits
Compression mode : Lossy
Delay relative to video : 16ms
Stream size : 59.3 MiB (10%)
Language : English
Default : No
Forced : No
Text
ID : 4
Format : UTF-8
Codec ID : S_TEXT/UTF8
Codec ID/Info : UTF-8 Plain Text
Language : English
Default : No
Forced : No
[freetreker.nl].t257.torrent 
Торрент: Зарегистрирован [ 2017-12-05 11:09 ] · 0F38170B9C0FDADEDBC953A7421A6775E4273702

Скачать .torrent

Скачать

32 KB

Статус: проверено
Скачан: 0 раз
Размер: 11,52 GB
terms.php
Похожие темы:
[Профиль] [ЛС]
Показать сообщения:    
Ответить на тему

Текущее время: 19-Дек 03:19

Часовой пояс: UTC ± 0



Вы не можете начинать темы
Вы не можете отвечать на сообщения
Вы не можете редактировать свои сообщения
Вы не можете удалять свои сообщения
Вы не можете голосовать в опросах
Вы не можете прикреплять файлы к сообщениям
Вы можете скачивать файлы