Оазис / Oasis / Сезон 1 / Серии 1 (13) (Кевин Макдональд) [2017, Великобритания, Научная фантастика, драма, WEBRip 720p] MVO (OMSKBIRD)

Ответить на тему
Статистика раздачи
Размер:  1,32 GB   |    Зарегистрирован:  1 год   |    Скачан:  1 раз

Полного источника не было: 11 месяцев 4 дня

 
     
 
 
 
Автор Сообщение

Gater ®

Пол: Не указан

Стаж: 1 год 5 месяцев

Сообщений: 1555

Создавать темы 05-Дек-2017 11:42

[Цитировать]

- Оазис / Oasis- Год выпуска • 2017
Страна • Великобритания
Жанр • Научная фантастика, драма
Продолжительность • ~60 мин.
Перевод
• Профессиональный (многоголосый, закадровый) "OMSKBIRD records"
-Режиссёр • Кевин Макдональд
В ролях • Ричард Мэдден, Анил Капур, Хейли Джоэл Осмент, Марк Эдди, Моурин Себастьян, Зоуи Эштон и др.-Описание • За основу для сериала был взят бестселлер Мишеля Фейбера "Книга странных новых вещей". Главным персонажем является священник, проживающий в недалеком будущем, где возможны межгалактические путешествия. В одно из таких ему и суждено отправится. Его цель очень далекая планета, где возможна жизнь людей, но пока что планета не населена. Поэтому туда отправляется группа людей с целью создания колонии, которая с будущем создаст на этой планете новую цивилизацию. По дороге наш герой столкнется с множеством удивительных моментов, которые станут проверкой его веры, и изменит его представление о жизни.-Реклама: Присутствует.-
Качество: WEBRip 720p
Формат: MKV
Видео: MPEG-4 AVC / ~ 3000 kbps / 1280х720p / 23.976 fps / 16:9
Аудио:
Русский / Dolby Digital 2.0 / 48 kHz / 192 kbps-

Скриншоты

-

MediaInfo


General
Unique ID : 215971270950424447817652606504191405954 (0xA27A8DC4DBE4019785D5240673F42F82)
Complete name : F:Мои ДокументыВидеоРАЗДАЧИОазисOasis S01 WEBRip 720p (OMSKBIRD)Oasis S01E01 WEBRip 720p (OMSKBIRD).mkv
Format : Matroska
Format version : Version 2
File size : 1.32 GiB
Duration : 1h 0mn
Overall bit rate : 3 154 Kbps
Encoded date : UTC 2017-04-17 14:19:40
Writing application : mkvmerge v4.0.0 ('The Stars were mine') сборка от Jun 6 2010 16:18:42
Writing library : libebml v1.0.0 + libmatroska v1.0.0
Video
ID : 1
Format : AVC
Format/Info : Advanced Video Codec
Format profile : [email protected]
Format settings, CABAC : Yes
Format settings, ReFrames : 3 frames
Codec ID : V_MPEG4/ISO/AVC
Duration : 1h 0mn
Bit rate : 2 899 Kbps
Width : 1 280 pixels
Height : 720 pixels
Display aspect ratio : 16:9
Frame rate : 25.000 fps
Standard : PAL
Color space : YUV
Chroma subsampling : 4:2:0
Bit depth : 8 bits
Scan type : Progressive
Bits/(Pixel*Frame) : 0.126
Stream size : 1.22 GiB (92%)
Language : English
Default : Yes
Forced : No
Color primaries : BT.709-5, BT.1361, IEC 61966-2-4, SMPTE RP177
Transfer characteristics : BT.709-5, BT.1361
Matrix coefficients : BT.709-5, BT.1361, IEC 61966-2-4 709, SMPTE RP177
Audio
ID : 2
Format : AC-3
Format/Info : Audio Coding 3
Mode extension : CM (complete main)
Format settings, Endianness : Big
Codec ID : A_AC3
Duration : 1h 0mn
Bit rate mode : Constant
Bit rate : 192 Kbps
Channel(s) : 2 channels
Channel positions : Front: L R
Sampling rate : 48.0 KHz
Bit depth : 16 bits
Compression mode : Lossy
Stream size : 82.4 MiB (6%)
Default : Yes
Forced : No

Внимание! Раздача ведётся путём добавления новых серий.

Внимание! Раздача ведётся путём добавления новых серий; при каждом добавлении создётся новый торрент. Чтобы начать докачку новой серии, пользователям необходимо сделать следующее:
Остановить скачивание.
Удалить старый торрент у себя из клиента (старые серии удалять не надо).
Скачать новый торрент и запустить его у себя в клиенте вместо старого, при этом указать клиенту путь в старую папку куда и должно происходить скачивание новых серий.
Ваш клиент при этом должен произвести хеширование (проверку) старой папки (если не производит сам - помогите ему сделать это), и будет докачивать только те серии которых у вас ещё нет. Старые серии при этом не удаляются, а продолжают раздаваться!
Eсли вы уже удалили старые серии, то предотвратить повторную закачку старых серий можно, отжав галочку в соответсвующих местах при запуске нового торрента. По возможности, желательно не удалять старые серии как можно дольше чтобы релизёр не столько продолжал раздавать старые серии, а смог сконцентрироваться на новых.
[freetreker.nl].t265.torrent 
Торрент: Зарегистрирован [ 2017-12-05 11:42 ] · 0928DC328CC0B11CEA79C8A2F90166777636D229

Скачать .torrent

Скачать

14 KB

Статус: проверено
Скачан: 1 раз
Размер: 1,32 GB
terms.php
Похожие темы:
[Профиль] [ЛС]
Показать сообщения:    
Ответить на тему

Текущее время: 12-Дек 07:35

Часовой пояс: UTC ± 0



Вы не можете начинать темы
Вы не можете отвечать на сообщения
Вы не можете редактировать свои сообщения
Вы не можете удалять свои сообщения
Вы не можете голосовать в опросах
Вы не можете прикреплять файлы к сообщениям
Вы можете скачивать файлы