Оазис / Oasis / Сезон 1 / Серии 1 (13) (Кевин Макдональд) [2017, Великобритания, Научная фантастика, драма, WEBRip] MVO (OMSKBIRD)

Ответить на тему
Статистика раздачи
Размер:  849 MB   |    Зарегистрирован:  1 год   |    Скачан:  0 раз

Полного источника не было: 1 год

 
     
 
 
 
Автор Сообщение

Gater ®

Пол: Не указан

Стаж: 1 год 5 месяцев

Сообщений: 1582

Создавать темы 05-Дек-2017 11:44

[Цитировать]

- Оазис / Oasis- Год выпуска • 2017
Страна • Великобритания
Жанр • Научная фантастика, драма
Продолжительность • ~60 мин.
Перевод
• Профессиональный (многоголосый, закадровый) "OMSKBIRD records"
-Режиссёр • Кевин Макдональд
В ролях • Ричард Мэдден, Анил Капур, Хейли Джоэл Осмент, Марк Эдди, Моурин Себастьян, Зоуи Эштон и др.-Описание • За основу для сериала был взят бестселлер Мишеля Фейбера "Книга странных новых вещей". Главным персонажем является священник, проживающий в недалеком будущем, где возможны межгалактические путешествия. В одно из таких ему и суждено отправится. Его цель очень далекая планета, где возможна жизнь людей, но пока что планета не населена. Поэтому туда отправляется группа людей с целью создания колонии, которая с будущем создаст на этой планете новую цивилизацию. По дороге наш герой столкнется с множеством удивительных моментов, которые станут проверкой его веры, и изменит его представление о жизни.-Реклама: Присутствует.-
Качество: WEBRip
Формат: AVI
Видео: Xvid / ~ 1800 kbps / 720х400p / 23.976 fps / 16:9
Аудио:
Русский / Dolby Digital 2.0 / 48 kHz / 192 kbps-

Скриншоты

-

MediaInfo


General
Complete name : F:Мои ДокументыВидеоРАЗДАЧИОазисOasis S01 WEBRip (OMSKBIRD)Oasis S01E01 WEBRip (OMSKBIRD).avi
Format : AVI
Format/Info : Audio Video Interleave
File size : 849 MiB
Duration : 1h 0mn
Overall bit rate : 1 977 Kbps
Writing application : VirtualDubMod 1.5.10.3 | www.virtualdub-fr.org || (build 2550/release)
Writing library : VirtualDubMod build 2550/release
Video
ID : 0
Format : MPEG-4 Visual
Format profile : Advanced [email protected]
Format settings, BVOP : 2
Format settings, QPel : No
Format settings, GMC : No warppoints
Format settings, Matrix : Default (MPEG)
Codec ID : XVID
Codec ID/Hint : XviD
Duration : 1h 0mn
Bit rate : 1 775 Kbps
Width : 720 pixels
Height : 400 pixels
Display aspect ratio : 16:9
Frame rate : 25.000 fps
Color space : YUV
Chroma subsampling : 4:2:0
Bit depth : 8 bits
Scan type : Progressive
Compression mode : Lossy
Bits/(Pixel*Frame) : 0.247
Stream size : 762 MiB (90%)
Writing library : XviD 1.2.1 (UTC 2008-12-04)
Audio
ID : 1
Format : AC-3
Format/Info : Audio Coding 3
Mode extension : CM (complete main)
Format settings, Endianness : Big
Codec ID : 2000
Duration : 1h 0mn
Bit rate mode : Constant
Bit rate : 192 Kbps
Channel(s) : 2 channels
Channel positions : Front: L R
Sampling rate : 48.0 KHz
Bit depth : 16 bits
Compression mode : Lossy
Stream size : 82.4 MiB (10%)
Alignment : Split accross interleaves
Interleave, duration : 40 ms (1.00 video frame)
Interleave, preload duration : 500 ms

Внимание! Раздача ведётся путём добавления новых серий.

Внимание! Раздача ведётся путём добавления новых серий; при каждом добавлении создётся новый торрент. Чтобы начать докачку новой серии, пользователям необходимо сделать следующее:
Остановить скачивание.
Удалить старый торрент у себя из клиента (старые серии удалять не надо).
Скачать новый торрент и запустить его у себя в клиенте вместо старого, при этом указать клиенту путь в старую папку куда и должно происходить скачивание новых серий.
Ваш клиент при этом должен произвести хеширование (проверку) старой папки (если не производит сам - помогите ему сделать это), и будет докачивать только те серии которых у вас ещё нет. Старые серии при этом не удаляются, а продолжают раздаваться!
Eсли вы уже удалили старые серии, то предотвратить повторную закачку старых серий можно, отжав галочку в соответсвующих местах при запуске нового торрента. По возможности, желательно не удалять старые серии как можно дольше чтобы релизёр не столько продолжал раздавать старые серии, а смог сконцентрироваться на новых.
[freetreker.nl].t266.torrent 
Торрент: Зарегистрирован [ 2017-12-05 11:44 ] · 749D88DE55741919FB7829CAFEBD687DA98CDF57

Скачать .torrent

Скачать

18 KB

Статус: проверено
Скачан: 0 раз
Размер: 849 MB
terms.php
Похожие темы:
[Профиль] [ЛС]
Показать сообщения:    
Ответить на тему

Текущее время: 19-Дек 04:05

Часовой пояс: UTC ± 0



Вы не можете начинать темы
Вы не можете отвечать на сообщения
Вы не можете редактировать свои сообщения
Вы не можете удалять свои сообщения
Вы не можете голосовать в опросах
Вы не можете прикреплять файлы к сообщениям
Вы можете скачивать файлы