Заложница / Taken / Сезон 1 / Серии 1-10 (10) (Холли Дэйл) [2017, США, боевик, триллер, WEB-DLRip 720p] MVO (OMSKBIRD)

Ответить на тему
Статистика раздачи
Размер:  9,4 GB   |    Зарегистрирован:  4 месяца 21 день   |    Скачан:  0 раз

Полного источника не было: Никогда

 
     
 
 
 
Автор Сообщение

Gater ®

Пол: Не указан

Стаж: 9 месяцев 17 дней

Сообщений: 972

Создавать темы 05-Дек-2017 11:53

[Цитировать]

- Заложница / Taken- Год выпуска • 2017
Страна • США
Жанр • Боевик, триллер
Продолжительность • ~44 мин.
Перевод
• Профессиональный (многоголосый, закадровый) "OMSKBIRD records"
-Режиссёр • Холли Дэйл, Ромео Тироне, Лекси Александр
В ролях • Клайв Стэнден, Джеймс Хеберт, Симу Лью, Дженнифер Марсала, Романо Орцари, Джанет Рэкуэл, Дженнифер Билз, Моник Кёрнен, Гай Чарльз, Майкл Ирби и др.-Описание • Это история молодого Брайана Миллса, бывшего «зеленого берета», пережившего трагедию, которая полностью изменила его. Справляясь с последствиями травмы, Миллс становится оперативником ЦРУ, и новая работа пробуждает в нем особенные и невероятно опасные таланты.-
Качество: WEB-DLRip 720p
Формат: MKV
Видео: MPEG-4 AVC / ~ 3000 kbps / 1280х720p / 23.976 fps / 16:9
Аудио:
Русский / Dolby Digital 2.0 / 48 kHz / 192 kbps

MediaInfo


General
Unique ID : 176982486051425778967627948752944212336 (0x852596427A080D54A7FB28B8325FA970)
Complete name : F:Мои ДокументыВидеоРАЗДАЧИЗаложницаTaken S01 HDTVRip 720p (OMSKBIRD)Taken S01E01 HDTVRip 720p (OMSKBIRD).mkv
Format : Matroska
Format version : Version 2
File size : 985 MiB
Duration : 43mn 13s
Overall bit rate : 3 186 Kbps
Encoded date : UTC 2017-02-28 20:39:03
Writing application : mkvmerge v4.0.0 ('The Stars were mine') сборка от Jun 6 2010 16:18:42
Writing library : libebml v1.0.0 + libmatroska v1.0.0
Video
ID : 1
Format : AVC
Format/Info : Advanced Video Codec
Format profile : Main@L3.2
Format settings, CABAC : Yes
Format settings, ReFrames : 3 frames
Codec ID : V_MPEG4/ISO/AVC
Duration : 43mn 13s
Bit rate : 2 931 Kbps
Width : 1 280 pixels
Height : 720 pixels
Display aspect ratio : 16:9
Frame rate : 25.000 fps
Standard : PAL
Color space : YUV
Chroma subsampling : 4:2:0
Bit depth : 8 bits
Scan type : Progressive
Bits/(Pixel*Frame) : 0.127
Stream size : 906 MiB (92%)
Language : English
Default : Yes
Forced : No
Color primaries : BT.709-5, BT.1361, IEC 61966-2-4, SMPTE RP177
Transfer characteristics : BT.709-5, BT.1361
Matrix coefficients : BT.709-5, BT.1361, IEC 61966-2-4 709, SMPTE RP177
Audio
ID : 2
Format : AC-3
Format/Info : Audio Coding 3
Mode extension : CM (complete main)
Format settings, Endianness : Big
Codec ID : A_AC3
Duration : 43mn 13s
Bit rate mode : Constant
Bit rate : 192 Kbps
Channel(s) : 2 channels
Channel positions : Front: L R
Sampling rate : 48.0 KHz
Bit depth : 16 bits
Compression mode : Lossy
Stream size : 59.4 MiB (6%)
Default : Yes
Forced : No
[freetreker.nl].t268.torrent 
Торрент: Зарегистрирован [ 2017-12-05 11:53 ] · 32192B361A6555DC68E79392E8021C61E0D703E2

Скачать .torrent

Скачать

25 KB

Статус: проверено
Скачан: 0 раз
Размер: 9,4 GB
terms.php
Похожие темы:
[Профиль] [ЛС]
Показать сообщения:    
Ответить на тему

Текущее время: 26-Апр 19:24

Часовой пояс: UTC ± 0



Вы не можете начинать темы
Вы не можете отвечать на сообщения
Вы не можете редактировать свои сообщения
Вы не можете удалять свои сообщения
Вы не можете голосовать в опросах
Вы не можете прикреплять файлы к сообщениям
Вы можете скачивать файлы