Брокмайр / Brockmire / Сезон 1 / Серии 1-8 (8) (Тим Киркби) [2017, Комедия, WEBRip] MVO (OMSKBIRD)

Ответить на тему
Статистика раздачи
Размер:  2,52 GB   |    Зарегистрирован:  9 месяцев 14 дней   |    Скачан:  0 раз

Полного источника не было: Никогда

 
     
 
 
 
Автор Сообщение

Gater ®

Пол: Не указан

Стаж: 1 год 2 месяца

Сообщений: 1375

Создавать темы 05-Дек-2017 12:01

[Цитировать]

- Брокмайр / Brockmire- Год выпуска • 2017
Страна • США
Жанр • Комедия
Продолжительность • ~22 мин.
Перевод
• Профессиональный (двухголосый, закадровый) "OMSKBIRD records"
-Режиссёр • Тим Киркби
В ролях • Хэнк Азария, Хемки Мадера, Аманда Пит, Пол Рэй, Стив Култер, Алекс Фиппс, Кэти Финнеран, Дестини Лопес, Рубен Бугайонг и др.-Описание • Джим Брокмайр — знаменитый комментатор игр Главной лиги бейсбола. Однако узнав об изменах жены, он послал к чертям профессионализм и слетел с катушек в прямом эфире. Ролик с буйствующим Брокмайром попал в сеть, превратив бывшую звезду во всеобщее посмешище. Но десять лет спустя главный герой решает восстановить свою карьеру и наладить личную жизнь, устроившись комментатором игр низшей бейсбольной лиги в крохотном Морристауне.-
Качество: WEBRip
Формат: AVI
Видео: Xvid / ~ 1800 kbps / 720х400p / 23.976 fps / 16:9
Аудио:
Русский / Dolby Digital 2.0 / 48 kHz / 192 kbps-

Скриншоты

-

MediaInfo


General
Complete name : F:Мои ДокументыВидеоРАЗДАЧИБрокмайерBrockmire S01 WEBRip (OMSKBIRD)Brockmire S01E01 WEBRip (OMSKBIRD).avi
Format : AVI
Format/Info : Audio Video Interleave
File size : 336 MiB
Duration : 23mn 30s
Overall bit rate : 1 997 Kbps
Writing application : VirtualDubMod 1.5.10.3 | www.virtualdub-fr.org || (build 2550/release)
Writing library : VirtualDubMod build 2550/release
Video
ID : 0
Format : MPEG-4 Visual
Format profile : Advanced Simple@L5
Format settings, BVOP : 2
Format settings, QPel : No
Format settings, GMC : No warppoints
Format settings, Matrix : Default (MPEG)
Codec ID : XVID
Codec ID/Hint : XviD
Duration : 23mn 30s
Bit rate : 1 795 Kbps
Width : 720 pixels
Height : 400 pixels
Display aspect ratio : 16:9
Frame rate : 25.000 fps
Color space : YUV
Chroma subsampling : 4:2:0
Bit depth : 8 bits
Scan type : Progressive
Compression mode : Lossy
Bits/(Pixel*Frame) : 0.249
Stream size : 302 MiB (90%)
Writing library : XviD 1.2.1 (UTC 2008-12-04)
Audio
ID : 1
Format : AC-3
Format/Info : Audio Coding 3
Mode extension : CM (complete main)
Format settings, Endianness : Big
Codec ID : 2000
Duration : 23mn 30s
Bit rate mode : Constant
Bit rate : 192 Kbps
Channel(s) : 2 channels
Channel positions : Front: L R
Sampling rate : 48.0 KHz
Bit depth : 16 bits
Compression mode : Lossy
Stream size : 32.3 MiB (10%)
Alignment : Split accross interleaves
Interleave, duration : 40 ms (1.00 video frame)
Interleave, preload duration : 500 ms
[freetreker.nl].t272.torrent 
Торрент: Зарегистрирован [ 2017-12-05 12:01 ] · C8019787672627928AB96C3F1F281B5ACD51A452

Скачать .torrent

Скачать

14 KB

Статус: проверено
Скачан: 0 раз
Размер: 2,52 GB
terms.php
Похожие темы:
[Профиль] [ЛС]
Показать сообщения:    
Ответить на тему

Текущее время: 19-Сен 14:27

Часовой пояс: UTC ± 0



Вы не можете начинать темы
Вы не можете отвечать на сообщения
Вы не можете редактировать свои сообщения
Вы не можете удалять свои сообщения
Вы не можете голосовать в опросах
Вы не можете прикреплять файлы к сообщениям
Вы можете скачивать файлы