Игра престолов / Game of Thrones / Сезон: 7 / Серии: 1-7 из 7 (Алан Тейлор, Даниэль Минахан) [2017, Фэнтези, драма, приключения, экранизация, WEB-DLRip] (MVO : OmskBird)

Ответить на тему
Статистика раздачи
Размер:  7,19 GB   |    Зарегистрирован:  1 год 3 месяца   |    Скачан:  0 раз

Полного источника не было: 1 год

 
     
 
 
 
Автор Сообщение

Grandfather61 ®

Пол: Мужской

Стаж: 1 год 5 месяцев

Сообщений: 641

Создавать темы 19-Июл-2017 06:35

[Цитировать]

Игра престолов / Game of Thrones
Год выпуска: 2017
Страна: США
Жанр: Фэнтези, драма, приключения, экранизация
Продолжительность: ~ 00:55:00
Перевод: Профессиональный многоголосый закадровый | OmskBird
Русские субтитры: нет
Режиссёр: Алан Тейлор, Даниэль Минахан
В ролях: Лена Хиди, Питер Динклэйдж, Мишель Фэйрли, Эмилия Кларк, Кит Харингтон, Николай Костер-Валдау, Иэн Глен, Эйден Гиллен, Элфи Оуэн-Аллен, Мэйси Уильямс, Софи Тернер, Сибель Кекилли, Джеймс Космо, Стивен Диллэйн, Гетин Энтони, Гвендолин Кристи, Натали Дормер и др.
Описание: «Игра престолов» новый сериал HBO, основанный на бестселлерах Джорджа Р.Р. Мартина. В мире, где лето и зимы длятся десятилетиями, на кону корона Вестероса. Предательство, похоть, интриги и сверхъестественные силы сотрясают все четыре стороны Королевства — от плетущего интриги юга, диких восточных земель, до замерзшего севера и древней Стены, что защищает королевство от тьмы за нею. Короли и королевы, рыцари и мятежники, лжецы и благородные люди борются за власть в кровавом сражении за Железный Трон.
Ссылка на предыдущие и альтернативные раздачи: http://freetreker.nl/tracker.php?max=1&to=1&nm=Game+of+Thrones
Сэмпл: http://my-files.ru/5obzkp
Качество: WEB-DLRip
Формат: AVI
Видео кодек: XviD
Аудио кодек: AC3
Видео: 720x400 (1.80:1), 23.976 fps, ~2167 kbps avg, 0.31 bit/pixel
Аудио: AC3, 48 kHz, 2 ch, 192 Kbps | OmskBird
Субтитры: отсутствуют

Над релизом работали

Релиз: OmskBird
Перевод: Екатерина Кузнецова
Роли озвучивали: Павел Ярощик, Андрей Астров, Алексей Гнеушев, Наталья Ланц
Звукорежиссер: Павел Квентов
Постер: Ксения Просветова
Раздача с рекламными вставками

MediaInfo

General
Complete name : G:FilmsGame.of.Thrones.S07.400p.WEBRip.OmskBirdGame.of.Thrones.S07E01.WEBRip.OmskBird.avi
Format : AVI
Format/Info : Audio Video Interleave
File size : 1.02 GiB
Duration : 1h 1mn
Overall bit rate : 2 369 Kbps
Writing application : VirtualDubMod 1.5.10.3 (build 2550/release)
Writing library : VirtualDubMod build 2550/release
Video
ID : 0
Format : MPEG-4 Visual
Format profile : Advanced [email protected]
Format settings, BVOP : 1
Format settings, QPel : No
Format settings, GMC : No warppoints
Format settings, Matrix : Default (MPEG)
Codec ID : XVID
Codec ID/Hint : XviD
Duration : 1h 1mn
Bit rate : 2 167 Kbps
Width : 720 pixels
Height : 400 pixels
Display aspect ratio : 16:9
Frame rate : 23.976 (23976/1000) fps
Color space : YUV
Chroma subsampling : 4:2:0
Bit depth : 8 bits
Scan type : Progressive
Compression mode : Lossy
Bits/(Pixel*Frame) : 0.314
Stream size : 960 MiB (91%)
Writing library : XviD 73
Audio
ID : 1
Format : AC-3
Format/Info : Audio Coding 3
Mode extension : CM (complete main)
Format settings, Endianness : Big
Codec ID : 2000
Duration : 1h 1mn
Bit rate mode : Constant
Bit rate : 192 Kbps
Channel(s) : 2 channels
Channel positions : Front: L R
Sampling rate : 48.0 KHz
Frame rate : 31.250 fps (1536 spf)
Compression mode : Lossy
Stream size : 85.0 MiB (8%)
Alignment : Split accross interleaves
Interleave, duration : 42 ms (1.00 video frame)
Interleave, preload duration : 500 ms

Скриншоты

[freetreker.nl].t28.torrent 
 ЗОЛОТАЯ РАЗДАЧА! СКАЧАННОЕ НЕ ЗАСЧИТЫВАЕТСЯ! 
Торрент: Зарегистрирован [ 2017-08-28 18:28 ] · EF08F89EA1A80C126976AB903E637059A55D7133

Скачать .torrent

Скачать

19 KB

Статус: проверено
Скачан: 0 раз
Размер: 7,19 GB
terms.php
Похожие темы:


Последний раз редактировалось: Grandfather61 (2017-08-28 18:28), всего редактировалось 6 раз(а)
[Профиль] [ЛС]

Grandfather61 ®

Пол: Мужской

Стаж: 1 год 5 месяцев

Сообщений: 641

Создавать темы 24-Июл-2017 15:28 (спустя 5 дней)

[Цитировать]

Добавлена 2-я серия. Приятного просмотра!
[Профиль] [ЛС]

Grandfather61 ®

Пол: Мужской

Стаж: 1 год 5 месяцев

Сообщений: 641

Создавать темы 31-Июл-2017 18:24 (спустя 7 дней)

[Цитировать]

Добавлена 3-я серия. Приятного просмотра!
[Профиль] [ЛС]

Grandfather61 ®

Пол: Мужской

Стаж: 1 год 5 месяцев

Сообщений: 641

Создавать темы 07-Авг-2017 13:50 (спустя 6 дней)

[Цитировать]

Раздача обновлена. Добавлена 4-я серия. Приятного просмотра!
[Профиль] [ЛС]

Grandfather61 ®

Пол: Мужской

Стаж: 1 год 5 месяцев

Сообщений: 641

Создавать темы 14-Авг-2017 17:00 (спустя 7 дней)

[Цитировать]

Добавлена 5-я серия. Приятного просмотра!
[Профиль] [ЛС]

Grandfather61 ®

Пол: Мужской

Стаж: 1 год 5 месяцев

Сообщений: 641

Создавать темы 17-Авг-2017 16:33 (спустя 2 дня 23 часа)

[Цитировать]

Добавлена 6-я серия. Приятного просмотра!
[Профиль] [ЛС]

Grandfather61 ®

Пол: Мужской

Стаж: 1 год 5 месяцев

Сообщений: 641

Создавать темы 21-Авг-2017 15:48 (спустя 3 дня)

[Цитировать]

Раздача обновлена. Замена исходника. Приятного просмотра!
[Профиль] [ЛС]

Grandfather61 ®

Пол: Мужской

Стаж: 1 год 5 месяцев

Сообщений: 641

Создавать темы 28-Авг-2017 18:28 (спустя 7 дней)

[Цитировать]

Добавлена 7-я серия. Приятного просмотра!
[Профиль] [ЛС]
Показать сообщения:    
Ответить на тему

Текущее время: 19-Дек 04:03

Часовой пояс: UTC ± 0



Вы не можете начинать темы
Вы не можете отвечать на сообщения
Вы не можете редактировать свои сообщения
Вы не можете удалять свои сообщения
Вы не можете голосовать в опросах
Вы не можете прикреплять файлы к сообщениям
Вы можете скачивать файлы