Лучше звоните Солу / Better Call Saul / Сезон 3 / Серии 1-10 (10) (Винс Гиллиган) [2017, драма, комедия, криминал, WEB-DLRip 720p] MVO (OMSKBIRD)

Ответить на тему
Статистика раздачи
Размер:  11,07 GB   |    Зарегистрирован:  1 год   |    Скачан:  0 раз

Полного источника не было: Никогда

 
     
 
 
 
Автор Сообщение

Gater ®

Пол: Не указан

Стаж: 1 год 5 месяцев

Сообщений: 1555

Создавать темы 05-Дек-2017 14:38

[Цитировать]

- Лучше звоните Солу / Better Call Saul- Год выпуска • 2017
Страна • США
Жанр • криминал, драма, комедия
Продолжительность • ~55 мин.
Перевод
• Профессиональный (многоголосый, закадровый) "OMSKBIRD records"
-Создатель • Винс Гиллиган
В ролях • Боб Оденкёрк, Ри Сихорн, Патрик Фабиан, Майкл МакКин, Майкл Мэндо, Джонатан Бэнкс, Ген Н. Чавес, Джил Мюррэй и др.-Описание • История об испытаниях и невзгодах, которые приходится преодолеть Солу Гудману, адвокату по уголовным делам, в тот период, когда он пытается открыть свою собственную адвокатскую контору в Альбукерке, штат Нью-Мексико. Cпин-офф сериала «Во все тяжкие».-
Качество: iTunes WEB-DLRip 720p
Формат: MKV
Видео: MPEG-4 AVC / ~ 3000 kbps / 1280х720p / 23.976 fps / 16:9
Аудио:
Русский / Dolby Digital 2.0 / 48 kHz / 192 kbps-

Скриншоты

-

MediaInfo


General
Unique ID : 180932904247910611328881805377590854124 (0x881E68EA118100A6BDCC3D129A5501EC)
Complete name : F:Мои ДокументыВидеоРАЗДАЧИСолBetter Call Saul S03 WEB-DLRip 720p (OMSKBIRD)Better Call Saul S03E01 WEB-DLRip 720p (OMSKBIRD).mkv
Format : Matroska
Format version : Version 2
File size : 1.16 GiB
Duration : 52mn 26s
Overall bit rate : 3 160 Kbps
Encoded date : UTC 2017-04-15 13:39:07
Writing application : mkvmerge v4.0.0 ('The Stars were mine') сборка от Jun 6 2010 16:18:42
Writing library : libebml v1.0.0 + libmatroska v1.0.0
Video
ID : 1
Format : AVC
Format/Info : Advanced Video Codec
Format profile : [email protected]
Format settings, CABAC : Yes
Format settings, ReFrames : 3 frames
Codec ID : V_MPEG4/ISO/AVC
Duration : 52mn 26s
Bit rate : 2 905 Kbps
Width : 1 280 pixels
Height : 720 pixels
Display aspect ratio : 16:9
Frame rate : 25.000 fps
Standard : PAL
Color space : YUV
Chroma subsampling : 4:2:0
Bit depth : 8 bits
Scan type : Progressive
Bits/(Pixel*Frame) : 0.126
Stream size : 1.06 GiB (92%)
Language : English
Default : Yes
Forced : No
Color primaries : BT.709-5, BT.1361, IEC 61966-2-4, SMPTE RP177
Transfer characteristics : BT.709-5, BT.1361
Matrix coefficients : BT.709-5, BT.1361, IEC 61966-2-4 709, SMPTE RP177
Audio
ID : 2
Format : AC-3
Format/Info : Audio Coding 3
Mode extension : CM (complete main)
Format settings, Endianness : Big
Codec ID : A_AC3
Duration : 52mn 26s
Bit rate mode : Constant
Bit rate : 192 Kbps
Channel(s) : 2 channels
Channel positions : Front: L R
Sampling rate : 48.0 KHz
Bit depth : 16 bits
Compression mode : Lossy
Stream size : 72.0 MiB (6%)
Default : Yes
Forced : No
[freetreker.nl].t280.torrent 
Торрент: Зарегистрирован [ 2017-12-05 14:38 ] · BE9D31076F11AEB8456D48B2D5E52C4BF9259569

Скачать .torrent

Скачать

29 KB

Статус: проверено
Скачан: 0 раз
Размер: 11,07 GB
terms.php
Похожие темы:
[Профиль] [ЛС]
Показать сообщения:    
Ответить на тему

Текущее время: 12-Дек 07:20

Часовой пояс: UTC ± 0



Вы не можете начинать темы
Вы не можете отвечать на сообщения
Вы не можете редактировать свои сообщения
Вы не можете удалять свои сообщения
Вы не можете голосовать в опросах
Вы не можете прикреплять файлы к сообщениям
Вы можете скачивать файлы