Фарго / Fargo / Сезон 3 / Серии 1-10 (10) (Ной Хоули) [2017, драма, криминал, WEBRip / WEB-DL 1080p] MVO (OMSKBIRD) Original + Eng Subs

Ответить на тему
Статистика раздачи
Размер:  20,52 GB   |    Зарегистрирован:  1 год   |    Скачан:  2 раза

Полного источника не было: 4 дня

 
     
 
 
 
Автор Сообщение

Gater ®

Пол: Не указан

Стаж: 1 год 5 месяцев

Сообщений: 1582

Создавать темы 05-Дек-2017 14:43

[Цитировать]

-Фарго / Fargo- Год выпуска • 2017
Страна • США
Жанр • криминал, драма
Продолжительность • ~55 мин.
Перевод
• Профессиональный (многоголосый, закадровый) "OMSKBIRD records"
-Создатель • Ной Хоули
В ролях • Юэн МакГрегор, Кэрри Кун, Мэри Элизабет Уинстэд, Скут МакНэри, Дэвид Тьюлис, Майкл Стулбарг, Джим Гэффиган, Ши Уигхэм, Каран Сони, Фред Меламед, Томас Манн и др.-Описание • Действие разворачивается в 2010 году. Король парковок Миннесоты Эммит считает себя воплощением американской мечты. Его младший брат Рэй — лысеющий сотрудник службы надзора за условно освобожденными — постоянно живет в тени своего успешного брата. Их соперничество быстро набирает обороты...-
Качество: WEBRip 1080p
Формат: MKV
Видео: MPEG-4 AVC / ~ 6000 kbps / 1916х956p / 23.976 fps / 16:9 / ~ 0.140 bit/pixel / High Level 4.1
Аудио:
Русский / Dolby Digital 5.1 / 48 kHz / 384 kbps
English / Dolby Digital 5.1 / 48 kHz / 384 kbps
Субтитры: Eng-

Скриншоты

-

MediaInfo


General
Unique ID : 221080726459368533051863949694312731819 (0xA652996006C8D100A5148D7B2D5D54AB)
Complete name : F:\Мои Документы\Видео\РАЗДАЧИ\Фарго\Fargo S03 WEBRip 1080p (OMSKBIRD)\Fargo S03E01 WEBRip 1080p (OMSKBIRD).mkv
Format : Matroska
Format version : Version 2
File size : 3.24 GiB
Duration : 1h 6mn
Overall bit rate : 6 981 Kbps
Encoded date : UTC 2017-04-21 14:47:17
Writing application : mkvmerge v4.0.0 ('The Stars were mine') сборка от Jun 6 2010 16:18:42
Writing library : libebml v1.0.0 + libmatroska v1.0.0
Video
ID : 1
Format : AVC
Format/Info : Advanced Video Codec
Format profile : [email protected]
Format settings, CABAC : Yes
Format settings, ReFrames : 4 frames
Codec ID : V_MPEG4/ISO/AVC
Duration : 1h 6mn
Bit rate : 6 074 Kbps
Width : 1 920 pixels
Height : 956 pixels
Display aspect ratio : 2.008
Frame rate : 23.976 fps
Color space : YUV
Chroma subsampling : 4:2:0
Bit depth : 8 bits
Scan type : Progressive
Bits/(Pixel*Frame) : 0.138
Stream size : 2.82 GiB (87%)
Writing library : x264 core 144 r2525 40bb568
Encoding settings : cabac=1 / ref=4 / deblock=1:-3:-3 / analyse=0x3:0x133 / me=umh / subme=10 / psy=1 / psy_rd=1.00:0.00 / mixed_ref=1 / me_range=48 / chroma_me=1 / trellis=2 / 8x8dct=1 / cqm=0 / deadzone=21,11 / fast_pskip=0 / chroma_qp_offset=-2 / threads=12 / lookahead_threads=2 / sliced_threads=0 / nr=0 / decimate=0 / interlaced=0 / bluray_compat=0 / constrained_intra=0 / bframes=8 / b_pyramid=2 / b_adapt=2 / b_bias=0 / direct=3 / weightb=1 / open_gop=0 / weightp=2 / keyint=250 / keyint_min=23 / scenecut=40 / intra_refresh=0 / rc=crf / mbtree=0 / crf=17.0 / qcomp=0.60 / qpmin=0 / qpmax=69 / qpstep=4 / ip_ratio=1.30 / pb_ratio=1.20 / aq=3:0.80
Language : English
Default : No
Forced : No
Audio #1
ID : 2
Format : AC-3
Format/Info : Audio Coding 3
Mode extension : CM (complete main)
Format settings, Endianness : Big
Codec ID : A_AC3
Duration : 1h 6mn
Bit rate mode : Constant
Bit rate : 384 Kbps
Channel(s) : 6 channels
Channel positions : Front: L C R, Side: L R, LFE
Sampling rate : 48.0 KHz
Bit depth : 16 bits
Compression mode : Lossy
Stream size : 183 MiB (6%)
Language : Russian
Default : Yes
Forced : No
Audio #2
ID : 3
Format : AC-3
Format/Info : Audio Coding 3
Mode extension : CM (complete main)
Format settings, Endianness : Big
Codec ID : A_AC3
Duration : 1h 6mn
Bit rate mode : Constant
Bit rate : 384 Kbps
Channel(s) : 6 channels
Channel positions : Front: L C R, Side: L R, LFE
Sampling rate : 48.0 KHz
Bit depth : 16 bits
Compression mode : Lossy
Stream size : 183 MiB (6%)
Language : English
Default : No
Forced : No
Text
ID : 4
Format : UTF-8
Codec ID : S_TEXT/UTF8
Codec ID/Info : UTF-8 Plain Text
Language : English
Default : No
Forced : No
[freetreker.nl].t282.torrent 
Торрент: Зарегистрирован [ 2017-12-05 14:43 ] · 8B58258386039A48D4F1401AE05A050F8FA50442

Скачать .torrent

Скачать

52 KB

Статус: проверено
Скачан: 2 раз
Размер: 20,52 GB
terms.php
Похожие темы:
[Профиль] [ЛС]
Показать сообщения:    
Ответить на тему

Текущее время: 19-Дек 03:01

Часовой пояс: UTC ± 0



Вы не можете начинать темы
Вы не можете отвечать на сообщения
Вы не можете редактировать свои сообщения
Вы не можете удалять свои сообщения
Вы не можете голосовать в опросах
Вы не можете прикреплять файлы к сообщениям
Вы можете скачивать файлы