Фарго / Fargo / Сезон 3 / Серии 1-10 (10) (Ной Хоули) [2017, драма, криминал, WEBRip 720p] MVO (OMSKBIRD)

Ответить на тему
Статистика раздачи
Размер:  11,2 GB   |    Зарегистрирован:  9 месяцев 17 дней   |    Скачан:  0 раз

Полного источника не было: Никогда

 
     
 
 
 
Автор Сообщение

Gater ®

Пол: Не указан

Стаж: 1 год 2 месяца

Сообщений: 1378

Создавать темы 05-Дек-2017 14:46

[Цитировать]

-Фарго / Fargo- Год выпуска • 2017
Страна • США
Жанр • криминал, драма
Продолжительность • ~55 мин.
Перевод
• Профессиональный (многоголосый, закадровый) "OMSKBIRD records"
-Создатель • Ной Хоули
В ролях • Юэн МакГрегор, Кэрри Кун, Мэри Элизабет Уинстэд, Скут МакНэри, Дэвид Тьюлис, Майкл Стулбарг, Джим Гэффиган, Ши Уигхэм, Каран Сони, Фред Меламед, Томас Манн и др.-Описание • Действие разворачивается в 2010 году. Король парковок Миннесоты Эммит считает себя воплощением американской мечты. Его младший брат Рэй — лысеющий сотрудник службы надзора за условно освобожденными — постоянно живет в тени своего успешного брата. Их соперничество быстро набирает обороты...-
Качество: WEBRip 720p
Формат: MKV
Видео: MPEG-4 AVC / ~ 3000 kbps / 1280х720p / 23.976 fps / 16:9
Аудио:
Русский / Dolby Digital 2.0 / 48 kHz / 192 kbps-

Скриншоты

-

MediaInfo


General
Unique ID : 236437214455466187545142287319162674462 (0xB1E026B05F541739933B4703FF7FDD1E)
Complete name : F:Мои ДокументыВидеоРАЗДАЧИФаргоFargo S03 WEBRip 720p (OMSKBIRD)Fargo S03E01 WEBRip 720p (OMSKBIRD).mkv
Format : Matroska
Format version : Version 2
File size : 1.43 GiB
Duration : 1h 6mn
Overall bit rate mode : Constant
Overall bit rate : 3 063 Kbps
Encoded date : UTC 2017-04-21 13:50:49
Writing application : mkvmerge v4.0.0 ('The Stars were mine') сборка от Jun 6 2010 16:18:42
Writing library : libebml v1.0.0 + libmatroska v1.0.0
Video
ID : 1
Format : AVC
Format/Info : Advanced Video Codec
Format profile : Baseline@L3.2
Format settings, CABAC : No
Format settings, ReFrames : 3 frames
Codec ID : V_MPEG4/ISO/AVC
Duration : 1h 6mn
Bit rate mode : Constant
Bit rate : 2 810 Kbps
Nominal bit rate : 3 000 Kbps
Width : 1 280 pixels
Height : 720 pixels
Display aspect ratio : 16:9
Frame rate : 23.976 fps
Standard : NTSC
Color space : YUV
Chroma subsampling : 4:2:0
Bit depth : 8 bits
Scan type : Progressive
Bits/(Pixel*Frame) : 0.127
Stream size : 1.31 GiB (92%)
Language : English
Default : Yes
Forced : No
Audio
ID : 2
Format : AC-3
Format/Info : Audio Coding 3
Mode extension : CM (complete main)
Format settings, Endianness : Big
Codec ID : A_AC3
Duration : 1h 6mn
Bit rate mode : Constant
Bit rate : 192 Kbps
Channel(s) : 2 channels
Channel positions : Front: L R
Sampling rate : 48.0 KHz
Bit depth : 16 bits
Compression mode : Lossy
Stream size : 92.0 MiB (6%)
Default : Yes
Forced : No
[freetreker.nl].t283.torrent 
Торрент: Зарегистрирован [ 2017-12-05 14:46 ] · D6B540F43F657EFC85C54A070721D78CAFE839B6

Скачать .torrent

Скачать

30 KB

Статус: проверено
Скачан: 0 раз
Размер: 11,2 GB
terms.php
Похожие темы:
[Профиль] [ЛС]
Показать сообщения:    
Ответить на тему

Текущее время: 23-Сен 14:02

Часовой пояс: UTC ± 0



Вы не можете начинать темы
Вы не можете отвечать на сообщения
Вы не можете редактировать свои сообщения
Вы не можете удалять свои сообщения
Вы не можете голосовать в опросах
Вы не можете прикреплять файлы к сообщениям
Вы можете скачивать файлы