Эпоха за эпохой / Time After Time / Сезон 1 / Серии 1-12 (12) (Маркос Сига) [2017, США, драма, фантастика, HDTVrip 1080p] MVO (OMSKBIRD)

Ответить на тему
Статистика раздачи
Размер:  35,16 GB   |    Зарегистрирован:  1 год   |    Скачан:  0 раз

Полного источника не было: Никогда

 
     
 
 
 
Автор Сообщение

Gater ®

Пол: Не указан

Стаж: 1 год 5 месяцев

Сообщений: 1582

Создавать темы 05-Дек-2017 14:53

[Цитировать]

- Эпоха за эпохой / Time After Time- Год выпуска • 2017
Страна • США
Жанр • Фантастика, драма
Продолжительность • ~44 мин.
Перевод
• Профессиональный (многоголосый, закадровый) "OMSKBIRD records"
-Режиссёр • Маркос Сига, Стив Шилл, Майкл А. Алловиц
В ролях • Уилл Чейз, Фредди Строма, Omar Maskati, Дженезис Родригез, Jonathan Mielec, Алан Ариано, Майкл Бенц, Джош Боуман, Райан Бертон, Джули Серда и др.-Описание • Сериал расскажет о приключениях молодого писателя Герберта Уэллса, который изобретает машину времени. Он еще не успел её испытать, но за него это сделал Джек-Потрошитель, скрывающийся от полиции. Уэллс, убеждённый, что в будущем наступит утопия, не будет войн и преступности, решает отправиться вслед за ним, чтобы помешать кровавому маньяку сеять хаос.-
Качество: HDTVrip 1080p
Формат: MKV
Видео: MPEG-4 AVC / ~ 8100 kbps / 1920х1078p / 23.976 fps / 16:9 / ~ 0.160 bit/pixel / High Level 4.1
Аудио:
Русский / Dolby Digital 5.1 / 48 kHz / 384 kbps
English / Dolby Digital 5.1 / 48 kHz / 640 kbps
Субтитры:нет-

Скриншоты

-

MediaInfo


General
Unique ID : 177283072223049152969771213213804946597 (0x855F7A4D590871AF9127185FA87264A5)
Complete name : F:\Мои Документы\Видео\РАЗДАЧИ\Эпоха\Time after time S01 HDTVrip 1080p (OMSKBIRD)\Time after time S01E01 HDTVrip 1080p (OMSKBIRD).mkv
Format : Matroska
Format version : Version 2
File size : 5.42 GiB
Duration : 1h 23mn
Overall bit rate : 9 279 Kbps
Encoded date : UTC 2017-03-12 13:08:53
Writing application : mkvmerge v4.0.0 ('The Stars were mine') сборка от Jun 6 2010 16:18:42
Writing library : libebml v1.0.0 + libmatroska v1.0.0
Video
ID : 1
Format : AVC
Format/Info : Advanced Video Codec
Format profile : [email protected]
Format settings, CABAC : Yes
Format settings, ReFrames : 4 frames
Codec ID : V_MPEG4/ISO/AVC
Duration : 1h 23mn
Bit rate : 8 070 Kbps
Width : 1 920 pixels
Height : 1 078 pixels
Display aspect ratio : 16:9
Frame rate : 23.976 fps
Color space : YUV
Chroma subsampling : 4:2:0
Bit depth : 8 bits
Scan type : Progressive
Bits/(Pixel*Frame) : 0.163
Stream size : 4.71 GiB (87%)
Writing library : x264 core 148 r2762 90a61ec
Encoding settings : cabac=1 / ref=4 / deblock=1:-2:-2 / analyse=0x3:0x113 / me=umh / subme=11 / psy=1 / psy_rd=1.00:0.00 / mixed_ref=1 / me_range=32 / chroma_me=1 / trellis=2 / 8x8dct=1 / cqm=0 / deadzone=21,11 / fast_pskip=0 / chroma_qp_offset=-2 / threads=12 / lookahead_threads=1 / sliced_threads=0 / nr=0 / decimate=1 / interlaced=0 / bluray_compat=0 / constrained_intra=0 / bframes=5 / b_pyramid=2 / b_adapt=1 / b_bias=0 / direct=3 / weightb=1 / open_gop=0 / weightp=2 / keyint=250 / keyint_min=23 / scenecut=40 / intra_refresh=0 / rc_lookahead=50 / rc=crf / mbtree=1 / crf=17.0 / qcomp=0.60 / qpmin=0 / qpmax=69 / qpstep=4 / ip_ratio=1.40 / aq=1:1.00
Language : English
Default : No
Forced : No
Audio #1
ID : 2
Format : AC-3
Format/Info : Audio Coding 3
Mode extension : CM (complete main)
Format settings, Endianness : Big
Codec ID : A_AC3
Duration : 1h 23mn
Bit rate mode : Constant
Bit rate : 384 Kbps
Channel(s) : 6 channels
Channel positions : Front: L C R, Side: L R, LFE
Sampling rate : 48.0 KHz
Bit depth : 16 bits
Compression mode : Lossy
Stream size : 230 MiB (4%)
Language : Russian
Default : Yes
Forced : No
Audio #2
ID : 3
Format : AC-3
Format/Info : Audio Coding 3
Mode extension : CM (complete main)
Format settings, Endianness : Big
Codec ID : A_AC3
Duration : 1h 23mn
Bit rate mode : Constant
Bit rate : 640 Kbps
Channel(s) : 6 channels
Channel positions : Front: L C R, Side: L R, LFE
Sampling rate : 48.0 KHz
Bit depth : 16 bits
Compression mode : Lossy
Delay relative to video : 20ms
Stream size : 383 MiB (7%)
Language : English
Default : No
Forced : No
[freetreker.nl].t285.torrent 
Торрент: Зарегистрирован [ 2017-12-05 14:53 ] · DEA879AA09EE5B9CBA375A0A66BEB3C0A7B7FA51

Скачать .torrent

Скачать

89 KB

Статус: проверено
Скачан: 0 раз
Размер: 35,16 GB
terms.php
Похожие темы:
[Профиль] [ЛС]
Показать сообщения:    
Ответить на тему

Текущее время: 19-Дек 03:01

Часовой пояс: UTC ± 0



Вы не можете начинать темы
Вы не можете отвечать на сообщения
Вы не можете редактировать свои сообщения
Вы не можете удалять свои сообщения
Вы не можете голосовать в опросах
Вы не можете прикреплять файлы к сообщениям
Вы можете скачивать файлы