Эпоха за эпохой / Time After Time / Сезон 1 / Серии 1-12 (12) (Маркос Сига) [2017, США, драма, фантастика, HDTVrip 720p] MVO (OMSKBIRD)

Ответить на тему
Статистика раздачи
Размер:  11,31 GB   |    Зарегистрирован:  4 месяца 15 дней   |    Скачан:  0 раз

Полного источника не было: Никогда

 
     
 
 
 
Автор Сообщение

Gater ®

Пол: Не указан

Стаж: 9 месяцев 11 дней

Сообщений: 948

Создавать темы 05-Дек-2017 14:55

[Цитировать]

- Эпоха за эпохой / Time After Time- Год выпуска • 2017
Страна • США
Жанр • Фантастика, драма
Продолжительность • ~44 мин.
Перевод
• Профессиональный (многоголосый, закадровый) "OMSKBIRD records"
-Режиссёр • Маркос Сига, Стив Шилл, Майкл А. Алловиц
В ролях • Уилл Чейз, Фредди Строма, Omar Maskati, Дженезис Родригез, Jonathan Mielec, Алан Ариано, Майкл Бенц, Джош Боуман, Райан Бертон, Джули Серда и др.-Описание • Сериал расскажет о приключениях молодого писателя Герберта Уэллса, который изобретает машину времени. Он еще не успел её испытать, но за него это сделал Джек-Потрошитель, скрывающийся от полиции. Уэллс, убеждённый, что в будущем наступит утопия, не будет войн и преступности, решает отправиться вслед за ним, чтобы помешать кровавому маньяку сеять хаос.-
Качество: HDTVrip 720p
Формат: MKV
Видео: MPEG-4 AVC / ~ 3000 kbps / 1280х720p / 23.976 fps / 16:9
Аудио:
Русский / Dolby Digital 2.0 / 48 kHz / 192 kbps-

Скриншоты

-

MediaInfo


General
Unique ID : 179756384950400907017342134720798505549 (0x873BD208D1D677AFAD585619A109BA4D)
Complete name : F:Мои ДокументыВидеоРАЗДАЧИЭпохаTime after time S01 HDTVrip 720p (OMSKBIRD)Time after time S01E01 HDTVrip 720p (OMSKBIRD).mkv
Format : Matroska
Format version : Version 2
File size : 985 MiB
Duration : 43mn 32s
Overall bit rate : 3 163 Kbps
Encoded date : UTC 2017-03-12 12:46:51
Writing application : mkvmerge v4.0.0 ('The Stars were mine') сборка от Jun 6 2010 16:18:42
Writing library : libebml v1.0.0 + libmatroska v1.0.0
Video
ID : 1
Format : AVC
Format/Info : Advanced Video Codec
Format profile : Main@L3.2
Format settings, CABAC : Yes
Format settings, ReFrames : 3 frames
Codec ID : V_MPEG4/ISO/AVC
Duration : 43mn 32s
Bit rate : 2 908 Kbps
Width : 1 280 pixels
Height : 720 pixels
Display aspect ratio : 16:9
Frame rate : 25.000 fps
Standard : PAL
Color space : YUV
Chroma subsampling : 4:2:0
Bit depth : 8 bits
Scan type : Progressive
Bits/(Pixel*Frame) : 0.126
Stream size : 906 MiB (92%)
Language : English
Default : Yes
Forced : No
Color primaries : BT.709-5, BT.1361, IEC 61966-2-4, SMPTE RP177
Transfer characteristics : BT.709-5, BT.1361
Matrix coefficients : BT.709-5, BT.1361, IEC 61966-2-4 709, SMPTE RP177
Audio
ID : 2
Format : AC-3
Format/Info : Audio Coding 3
Mode extension : CM (complete main)
Format settings, Endianness : Big
Codec ID : A_AC3
Duration : 43mn 32s
Bit rate mode : Constant
Bit rate : 192 Kbps
Channel(s) : 2 channels
Channel positions : Front: L R
Sampling rate : 48.0 KHz
Bit depth : 16 bits
Compression mode : Lossy
Stream size : 59.8 MiB (6%)
Default : Yes
Forced : No
[freetreker.nl].t286.torrent 
Торрент: Зарегистрирован [ 2017-12-05 14:55 ] · CE6C21A65BF5B850FFD57F916F83CFD743BDC32D

Скачать .torrent

Скачать

30 KB

Статус: проверено
Скачан: 0 раз
Размер: 11,31 GB
terms.php
Похожие темы:
[Профиль] [ЛС]
Показать сообщения:    
Ответить на тему

Текущее время: 21-Апр 00:03

Часовой пояс: UTC ± 0



Вы не можете начинать темы
Вы не можете отвечать на сообщения
Вы не можете редактировать свои сообщения
Вы не можете удалять свои сообщения
Вы не можете голосовать в опросах
Вы не можете прикреплять файлы к сообщениям
Вы можете скачивать файлы