Крушение / Wrecked / Сезон 2 / Серии 1-10 (10) (Джеймс Гриффитс) [2017, США, комедия, пародия, HDTVrip 1080p] MVO (OMSKBIRD)

Ответить на тему
Статистика раздачи
Размер:  14,56 GB   |    Зарегистрирован:  9 месяцев 13 дней   |    Скачан:  0 раз

Полного источника не было: Никогда

 
     
 
 
 
Автор Сообщение

Gater ®

Пол: Не указан

Стаж: 1 год 2 месяца

Сообщений: 1375

Создавать темы 05-Дек-2017 14:59

[Цитировать]

-Крушение / Wrecked- Год выпуска • 2017
Страна • США
Жанр • Комедия, пародия
Продолжительность • ~22 мин.
Перевод
• Професииональный (многоголосый, закадровый) "OMSKBIRD records"
-Создатель • Джеймс Гриффитс
В ролях • Джинджер Гонзага, Элли Матсумура, Николас Александр, Азиф Али, Пабло Асар, Джеймс О. Битти, Майк Бенитез, Зак Креггер и др.-Описание • История о неудачниках, переживших авиакатастрофу и очутившихся на необитаемом острове, где им придётся бороться за выживание вдали от благ цивилизации, социальных сетей и вай-фая.-
Качество: HDTVrip 1080p
Формат: MKV
Видео: MPEG-4 AVC / ~ 8900 kbps / 1920х1070p / 23.976 fps / 16:9 / ~ 0.180 bit/pixel / High Level 4.1
Аудио:
Русский / Dolby Digital 5.1 / 48 kHz / 640 kbps
English / Dolby Digital 5.1 / 48 kHz / 640 kbps-

Скриншоты

-

MediaInfo


General
Unique ID : 214566697374272951544787704947076196882 (0xA16C0AF1EF6B3701900E5D05CF2B6A12)
Complete name : F:\Мои Документы\Видео\РАЗДАЧИ\Крушение\Wrecked S02 HDTVrip 1080p (OMSKBIRD)\Wrecked S02E01 HDTVrip 1080p (OMSKBIRD).mkv
Format : Matroska
Format version : Version 2
File size : 1.60 GiB
Duration : 22mn 11s
Overall bit rate : 10.3 Mbps
Encoded date : UTC 2017-06-22 11:01:24
Writing application : mkvmerge v4.0.0 ('The Stars were mine') сборка от Jun 6 2010 16:18:42
Writing library : libebml v1.0.0 + libmatroska v1.0.0
Video
ID : 1
Format : AVC
Format/Info : Advanced Video Codec
Format profile : High@L4.1
Format settings, CABAC : Yes
Format settings, ReFrames : 4 frames
Codec ID : V_MPEG4/ISO/AVC
Duration : 22mn 11s
Bit rate : 8 857 Kbps
Width : 1 920 pixels
Height : 1 070 pixels
Display aspect ratio : 16:9
Frame rate : 23.976 fps
Color space : YUV
Chroma subsampling : 4:2:0
Bit depth : 8 bits
Scan type : Progressive
Bits/(Pixel*Frame) : 0.180
Stream size : 1.37 GiB (86%)
Writing library : x264 core 150 r2833 df79067
Encoding settings : cabac=1 / ref=4 / deblock=1:-2:-2 / analyse=0x3:0x113 / me=umh / subme=11 / psy=1 / psy_rd=1.00:0.00 / mixed_ref=1 / me_range=32 / chroma_me=1 / trellis=2 / 8x8dct=1 / cqm=0 / deadzone=21,11 / fast_pskip=0 / chroma_qp_offset=-2 / threads=12 / lookahead_threads=1 / sliced_threads=0 / nr=0 / decimate=1 / interlaced=0 / bluray_compat=0 / constrained_intra=0 / bframes=5 / b_pyramid=2 / b_adapt=1 / b_bias=0 / direct=3 / weightb=1 / open_gop=0 / weightp=2 / keyint=250 / keyint_min=23 / scenecut=40 / intra_refresh=0 / rc_lookahead=50 / rc=crf / mbtree=1 / crf=17.0 / qcomp=0.60 / qpmin=0 / qpmax=69 / qpstep=4 / ip_ratio=1.40 / aq=1:1.00
Language : English
Default : No
Forced : No
Audio #1
ID : 2
Format : AC-3
Format/Info : Audio Coding 3
Mode extension : CM (complete main)
Format settings, Endianness : Big
Codec ID : A_AC3
Duration : 22mn 11s
Bit rate mode : Constant
Bit rate : 640 Kbps
Channel(s) : 6 channels
Channel positions : Front: L C R, Side: L R, LFE
Sampling rate : 48.0 KHz
Bit depth : 16 bits
Compression mode : Lossy
Stream size : 102 MiB (6%)
Language : Russian
Default : Yes
Forced : No
Audio #2
ID : 3
Format : AC-3
Format/Info : Audio Coding 3
Mode extension : CM (complete main)
Format settings, Endianness : Big
Codec ID : A_AC3
Duration : 22mn 11s
Bit rate mode : Constant
Bit rate : 640 Kbps
Channel(s) : 6 channels
Channel positions : Front: L C R, Side: L R, LFE
Sampling rate : 48.0 KHz
Bit depth : 16 bits
Compression mode : Lossy
Delay relative to video : 28ms
Stream size : 102 MiB (6%)
Default : No
Forced : No
[freetreker.nl].t288.torrent 
Торрент: Зарегистрирован [ 2017-12-05 14:59 ] · 52A5D42E7C52A57E42E8BB37CCAB1F30A6B4E2FE

Скачать .torrent

Скачать

38 KB

Статус: проверено
Скачан: 0 раз
Размер: 14,56 GB
terms.php
Похожие темы:
[Профиль] [ЛС]
Показать сообщения:    
Ответить на тему

Текущее время: 19-Сен 14:26

Часовой пояс: UTC ± 0



Вы не можете начинать темы
Вы не можете отвечать на сообщения
Вы не можете редактировать свои сообщения
Вы не можете удалять свои сообщения
Вы не можете голосовать в опросах
Вы не можете прикреплять файлы к сообщениям
Вы можете скачивать файлы