Пространство / Экспансия / The Expanse / Сезон: 2 / Серии: 1-13 из 13 (Роберт Либерман / Robert Lieberman) [2017, США, фантастика, детектив, WEB-DL 1080p] MVO (OmskBird) + Original + Subs (Rus, Eng)

Ответить на тему
Статистика раздачи
Размер:  23,11 GB   |    Зарегистрирован:  1 год   |    Скачан:  0 раз

Полного источника не было: Никогда

 
     
 
 
 
Автор Сообщение

Grandfather61 ®

Пол: Мужской

Стаж: 1 год 5 месяцев

Сообщений: 641

Создавать темы 06-Дек-2017 06:19

[Цитировать]

--Пространство / Экспансия / The Expanse-- Год выпуска: 2017
Страна: США
Жанр: Фантастика, детектив
Продолжительность: ~ 00:43:00-Перевод: Любительский (многоголосый закадровый) OMSKBIRD records-Режиссёр: Роберт Либерман / Robert Lieberman-В ролях: Шоре Агдашлу, Кэс Анвар, Уэс Чэтэм, Томас Джейн, Стивен Стрейт, Илайс Туфексис, Джейн Моффат, Сара Митич, Майкл Мюррей, Джо Делфин.-Описание: Сыщик Миллер трудится над таинственной пропажей молодой женщины. Его детективные дорожки пересекаются с жизненным путём Холдена – плутоватого капитана звездолёта. Напарники поневоле начинают действовать вместе и отправляются в долгое странствие по Космосу. В котором, им предстоит раскрыть заговор, имеющий вселенские масштабы.
Сценарий для проекта писался по роману «Пробуждение Левиафана» Джеймса С.А. Кори-Доп. информация:
Релиз-группа:
Роли озвучивали:Павел Ярощик, Алексей Гнеушев, Ольга Федорова
Звукорежиссер: Павел Ярощик
Монтаж и сведение звука: Юрий Гамов- -Ссылка на предыдущие и альтернативные раздачи-Качество: WEB-DL 1080p
Контейнер: MKV
Видео: H.264, 1920x1080 (16:9), 23,976 fps, ~5 127 kbps, 0.103 bit/pixel
Аудио # rus: AC3, 48 kHz, 6 ch, 384 kbps - OmskBird
Аудио # eng : AC3, 48 kHz, 6 ch, 384 kbps
Субтитры: Русские (OmskBird), английские
Реклама: присутствуют аудио вставки рекламы (в начале и в конце по 10 сек.)

MediaInfo

General
Unique ID : 186934371688347669709897614951479835106 (0x8CA2401AABFEC795AF5B020FC31CF9E2)
Complete name : G:\Films\The.Expanse.S02.1080p.OmskBird\The.Expanse.S02E01.1080p.WEB-DL.OmskBird.mkv
Format : Matroska
Format version : Version 4 / Version 2
File size : 1.79 GiB
Duration : 43mn 26s
Overall bit rate : 5 897 Kbps
Encoded date : UTC 2017-02-04 10:30:30
Writing application : mkvmerge v9.7.1 ('Pandemonium') 64bit
Writing library : libebml v1.3.4 + libmatroska v1.4.5
Video
ID : 1
Format : AVC
Format/Info : Advanced Video Codec
Format profile : [email protected]
Format settings, CABAC : Yes
Format settings, ReFrames : 4 frames
Codec ID : V_MPEG4/ISO/AVC
Duration : 43mn 26s
Bit rate : 5 127 Kbps
Width : 1 920 pixels
Height : 1 080 pixels
Display aspect ratio : 16:9
Frame rate mode : Constant
Frame rate : 23.976 (24000/1001) fps
Color space : YUV
Chroma subsampling : 4:2:0
Bit depth : 8 bits
Scan type : Progressive
Bits/(Pixel*Frame) : 0.103
Stream size : 1.56 GiB (87%)
Language : English
Default : Yes
Forced : No
Color range : Limited
Color primaries : BT.709
Transfer characteristics : BT.709
Matrix coefficients : BT.709
Audio #1
ID : 2
Format : AC-3
Format/Info : Audio Coding 3
Mode extension : CM (complete main)
Format settings, Endianness : Big
Codec ID : A_AC3
Duration : 43mn 26s
Bit rate mode : Constant
Bit rate : 384 Kbps
Channel(s) : 6 channels
Channel positions : Front: L C R, Side: L R, LFE
Sampling rate : 48.0 KHz
Frame rate : 31.250 fps (1536 spf)
Compression mode : Lossy
Stream size : 119 MiB (7%)
Title : OmskBird 5.1
Language : Russian
Default : Yes
Forced : No
Audio #2
ID : 3
Format : AC-3
Format/Info : Audio Coding 3
Mode extension : CM (complete main)
Format settings, Endianness : Big
Codec ID : A_AC3
Duration : 43mn 26s
Bit rate mode : Constant
Bit rate : 384 Kbps
Channel(s) : 6 channels
Channel positions : Front: L C R, Side: L R, LFE
Sampling rate : 48.0 KHz
Frame rate : 31.250 fps (1536 spf)
Compression mode : Lossy
Stream size : 119 MiB (7%)
Title : eng
Language : English
Default : No
Forced : No
Text #1
ID : 4
Format : UTF-8
Codec ID : S_TEXT/UTF8
Codec ID/Info : UTF-8 Plain Text
Duration : 42mn 30s
Bit rate : 105 bps
Count of elements : 797
Stream size : 32.8 KiB (0%)
Title : rus (OmskBird)
Language : Russian
Default : No
Forced : No
Text #2
ID : 5
Format : UTF-8
Codec ID : S_TEXT/UTF8
Codec ID/Info : UTF-8 Plain Text
Duration : 42mn 30s
Bit rate : 80 bps
Count of elements : 778
Stream size : 25.2 KiB (0%)
Title : CC
Language : English
Default : No
Forced : No

Скриншоты

Внимание! Раздача ведётся путём добавления новых серий.


Внимание! Раздача ведётся путём добавления новых серий; при каждом добавлении создётся новый торрент. Чтобы начать докачку новой серии, пользователям необходимо сделать следующее:
Остановить скачивание.
Удалить старый торрент у себя из клиента (старые серии удалять не надо).
Скачать новый торрент и запустить его у себя в клиенте вместо старого, при этом указать клиенту путь в старую папку куда и должно происходить скачивание новых серий.
Ваш клиент при этом должен произвести хеширование (проверку) старой папки (если не производит сам - помогите ему сделать это), и будет докачивать только те серии которых у вас ещё нет. Старые серии при этом не удаляются, а продолжают раздаваться!
Eсли вы уже удалили старые серии, то предотвратить повторную закачку старых серий можно, отжав галочку в соответсвующих местах при запуске нового торрента. По возможности, желательно не удалять старые серии как можно дольше чтобы релизёр не столько продолжал раздавать старые серии, а смог сконцентрироваться на новых.
Раздача обновлена. Добавлена 13-я серия. Приятного просмотра!
[freetreker.nl].t292.torrent 
Торрент: Зарегистрирован [ 2017-12-06 06:19 ] · F6C8A2EC55CD78634482B690EF4E232B994AEEAC

Скачать .torrent

Скачать

59 KB

Статус: проверено
Скачан: 0 раз
Размер: 23,11 GB
terms.php
Похожие темы:
[Профиль] [ЛС]
Показать сообщения:    
Ответить на тему

Текущее время: 12-Дек 08:14

Часовой пояс: UTC ± 0



Вы не можете начинать темы
Вы не можете отвечать на сообщения
Вы не можете редактировать свои сообщения
Вы не можете удалять свои сообщения
Вы не можете голосовать в опросах
Вы не можете прикреплять файлы к сообщениям
Вы можете скачивать файлы