Колония / Colony / Сезон: 2 / Серии: 1-13 из 13 (Хуан Хосе Кампанелла / Juan José Campanella) [2017, США, фантастика, WEB-DL 1080p] MVO (OmskBird) + Original

Ответить на тему
Статистика раздачи
Размер:  22,97 GB   |    Зарегистрирован:  4 месяца 20 дней   |    Скачан:  0 раз

Полного источника не было: 3 месяца 20 дней

 
     
 
 
 
Автор Сообщение

Grandfather61 ®

Пол: Мужской

Стаж: 9 месяцев 17 дней

Сообщений: 510

Создавать темы 06-Дек-2017 06:50

[Цитировать]

--Колония / Colony-- Год выпуска: 2017
Страна: США
Жанр: фантастика
Продолжительность: ~ 00:43:00-Перевод: Любительский (многоголосый закадровый) OmskBird-Режиссёр: Хуан Хосе Кампанелла / Juan José Campanella
В ролях: Джош Холлоуэй, Сара Уэйн Кэллис, Аэдин Минкс, Чарльз Бэйкер, Тристен Бэнкстон, Том Бейер, Хилти Бауэн, Джонни Канниццаро, Джастин Чу-Кэри, Ной Крафт, Изабелла Крамп, Купер Дж. Фридман и др.-Описание: Действие разворачивается в недалёком будущем в Лос-Анджелесе, оккупированном злобными пришельцами. Пока захватчики не стремятся к полному уничтожению землян, но устанавливают над нами тотальный контроль. В изменившемся мире человеческая раса делится на два лагеря. Одни подчиняются и приспосабливаются жить под гнётом новой власти. Другие уходят в партизаны, чтобы сопротивляться колонистам.
В непростой ситуации оказывается главный герой, Уилл Боуман (Джош Холлоуэй), ранее служивший в ФБР.-Доп. информация:
Релиз-группа:
Роли озвучивали: Павел Ярощик, Алексей Гнеушев, Владислав Данилов, Ольга Федорова
Перевод: Никита Коваль
Звукорежиссер: Павел Квентов
Постер: Ксения Просветова
Монтаж и сведение звука: Юрий Гамов- -Ссылка на предыдущие и альтернативные раздачи-Качество: WEB-DL 1080p
Контейнер: MKV
Видео: H.264, 1920x1280 (16:9), 23.976 fps, ~5150 kbps, 0.103 bit/pixel
Аудио # rus: AC3, 48 kHz, 6 ch, 384 kbps
Аудио # eng: AC3, 48 kHz, 6 ch, 384 kbps
Субтитры: Английские
Реклама: присутствуют аудио вставки рекламы (в начале и в конце по 10 сек.)

Список серий

01. Eleven.Thirteen
02. Somewhere Out There
03. Sublimation
04. Panopticon
05. Company Man
06. Fallout
07. Free Radicals
08. Good Intentions
09. Taman Shud
10. The Garden of Beasts
11. Lost Boy
12. Seppuku
13. Ronin

MediaInfo

General
Unique ID : 200797705873196058615499004439035895418 (0x97103B4057C8FFA1A2DF34AEF78FDE7A)
Complete name : G:\Films\Colony.S02.1080p.OmskBird\Colony.S02E01.1080p.WEB-DL.OmskBird.mkv
Format : Matroska
Format version : Version 4 / Version 2
File size : 1.78 GiB
Duration : 43mn 0s
Overall bit rate : 5 914 Kbps
Encoded date : UTC 2017-01-14 08:57:10
Writing application : mkvmerge v9.7.1 ('Pandemonium') 64bit
Writing library : libebml v1.3.4 + libmatroska v1.4.5
Video
ID : 1
Format : AVC
Format/Info : Advanced Video Codec
Format profile : High@L4
Format settings, CABAC : Yes
Format settings, ReFrames : 4 frames
Codec ID : V_MPEG4/ISO/AVC
Duration : 43mn 0s
Bit rate : 5 144 Kbps
Width : 1 920 pixels
Height : 1 080 pixels
Display aspect ratio : 16:9
Frame rate mode : Constant
Frame rate : 23.976 (24000/1001) fps
Color space : YUV
Chroma subsampling : 4:2:0
Bit depth : 8 bits
Scan type : Progressive
Bits/(Pixel*Frame) : 0.103
Stream size : 1.54 GiB (87%)
Language : English
Default : Yes
Forced : No
Color range : Limited
Color primaries : BT.709
Transfer characteristics : BT.709
Matrix coefficients : BT.709
Audio #1
ID : 2
Format : AC-3
Format/Info : Audio Coding 3
Mode extension : CM (complete main)
Format settings, Endianness : Big
Codec ID : A_AC3
Duration : 43mn 0s
Bit rate mode : Constant
Bit rate : 384 Kbps
Channel(s) : 6 channels
Channel positions : Front: L C R, Side: L R, LFE
Sampling rate : 48.0 KHz
Frame rate : 31.250 fps (1536 spf)
Compression mode : Lossy
Stream size : 118 MiB (6%)
Title : OmskBird 5.1
Language : Russian
Default : Yes
Forced : No
Audio #2
ID : 3
Format : AC-3
Format/Info : Audio Coding 3
Mode extension : CM (complete main)
Format settings, Endianness : Big
Codec ID : A_AC3
Duration : 43mn 0s
Bit rate mode : Constant
Bit rate : 384 Kbps
Channel(s) : 6 channels
Channel positions : Front: L C R, Side: L R, LFE
Sampling rate : 48.0 KHz
Frame rate : 31.250 fps (1536 spf)
Compression mode : Lossy
Stream size : 118 MiB (6%)
Title : eng
Language : English
Default : No
Forced : No
Text
ID : 4
Format : UTF-8
Codec ID : S_TEXT/UTF8
Codec ID/Info : UTF-8 Plain Text
Duration : 42mn 1s
Bit rate : 52 bps
Count of elements : 550
Stream size : 16.1 KiB (0%)
Title : CC
Language : English
Default : No
Forced : No

Скриншоты

Внимание! Раздача ведётся путём добавления новых серий.

Внимание! Раздача ведётся путём добавления новых серий; при каждом добавлении создётся новый торрент. Чтобы начать докачку новой серии, пользователям необходимо сделать следующее:
Остановить скачивание.
Удалить старый торрент у себя из клиента (старые серии удалять не надо).
Скачать новый торрент и запустить его у себя в клиенте вместо старого, при этом указать клиенту путь в старую папку куда и должно происходить скачивание новых серий.
Ваш клиент при этом должен произвести хеширование (проверку) старой папки (если не производит сам - помогите ему сделать это), и будет докачивать только те серии которых у вас ещё нет. Старые серии при этом не удаляются, а продолжают раздаваться!
Eсли вы уже удалили старые серии, то предотвратить повторную закачку старых серий можно, отжав галочку в соответсвующих местах при запуске нового торрента. По возможности, желательно не удалять старые серии как можно дольше чтобы релизёр не столько продолжал раздавать старые серии, а смог сконцентрироваться на новых.
Раздача обновлена. Добавлена 13-я серия. Приятного просмотра!
[freetreker.nl].t298.torrent 
Торрент: Зарегистрирован [ 2017-12-06 06:50 ] · 131B15CB56EFCDCD1BE91274A9A4E2D2361E4D6C

Скачать .torrent

Скачать

59 KB

Статус: проверено
Скачан: 0 раз
Размер: 22,97 GB
terms.php
Похожие темы:
[Профиль] [ЛС]
Показать сообщения:    
Ответить на тему

Текущее время: 26-Апр 19:14

Часовой пояс: UTC ± 0



Вы не можете начинать темы
Вы не можете отвечать на сообщения
Вы не можете редактировать свои сообщения
Вы не можете удалять свои сообщения
Вы не можете голосовать в опросах
Вы не можете прикреплять файлы к сообщениям
Вы можете скачивать файлы